Ловушка для родителей / The Parent Trap (Нэнси Майерс / Nancy Meyers) [1998, США, комедия, семейный, VHSRip] [FullScreen] MVO (Видеосервис)

Reply to topic
DL-List and Torrent activity
Size:  1.46 GB   |    Registered:  4 years 4 months   |    Completed:  1 time

Seeder not seen: 5 months 19 days

 
   
 
 
Author Message

star21 ®

Gender: Female

Longevity: 4 years 5 months

Posts: 551945

Location: Екатеринбург

Post 02-Dec-2015 05:41

[Quote]

Ловушка для родителей / The Parent Trap
[FullScreen]
Страна: США
Жанр: комедия, семейный
Год выпуска: 1998
Продолжительность: 02:02:54
Перевод: Профессиональный (многоголосый закадровый) Видеосервис
Cубтитры: нет
Режиссер: Нэнси Майерс / Nancy Meyers
В ролях: Деннис Куэйд /Dennis Quaid/, Наташа Ричардсон /Natasha Richardson/, Лиза Энн Уолтер /Lisa Ann Walter/, Илэйн Хендрикс /Elaine Hendrix/, Саймон Кунц /Simon Kunz/, Ронни Стивенс /Ronnie Stevens/, Полли Холлидэй /Polly Holliday/, Линдсэй Лохан /Lindsay Lohan/
Описание:
Юная Холли Паркер живет в солнечной Калифорнии с самым замечательным отцом на свете, а ее ровесница Энни Джеймс - в туманном Лондоне с прекрасной любящей матерью. Первая-мечтает о маме, без которой ей очень тяжело, а второй-так хочется, чтобы у нее был папа. Когда девочки случайно встречаются в летнем лагере, им есть, чем поделиться друг с другом. Но помимо общих горестей между Холли и Энни существует еще одно сходство: они... близнецы! Их родители развелись много лет назад, и девочки решают исправить ошибку. Сестрички начинают действовать: американка возвращается в Лондон, а англичанка-в Америку. И ничего не подозревающие родители легко попадают в ловушку...
Доп. информация: Оцифровка лицензионной VHS (личный архив) и получение VHSRip alenavova
Эксклюзив для rutracker.org. При размещении данного релиза на других сайтах ссылка на автора alenavova обязательна.

Релиз
Сэмпл: https://yadi.sk/i/Q_Cifht6jTpcw
Качество видео: VHSRip
Формат видео: AVI
Видео: 704x528 (1.33:1), 25 fps, XviD build 50 ~1503 kbps avg, 0.16 bit/pixel
Аудио: 48 kHz, AC3 Dolby Digital, 2/0 (L,R) ch, ~192 kbps

MediaInfo

Ловушка для родителей - The Parent Trap (by alenavova).avi
Format : AVI
Format/Info : Audio Video Interleave
File size : 1.46 GiB
Duration : 2h 2mn
Overall bit rate : 1 706 Kbps
Movie name : Ловушка для родителей - The Parent Trap (by alenavova)
Director : by alenavova
Writing application : VirtualDubMod 1.5.10.3 | www.virtualdub-fr.org || (build 2550/release)
Copyright : Edich2
Comment : RuTracker.org
Video
ID : 0
Format : MPEG-4 Visual
Format profile : Advanced Simple@L5
Format settings, BVOP : 1
Format settings, QPel : No
Format settings, GMC : No warppoints
Format settings, Matrix : Default (MPEG)
Codec ID : XVID
Codec ID/Hint : XviD
Duration : 2h 2mn
Bit rate : 1 504 Kbps
Width : 704 pixels
Height : 528 pixels
Display aspect ratio : 4:3
Frame rate : 25.000 fps
Color space : YUV
Chroma subsampling : 4:2:0
Bit depth : 8 bits
Scan type : Progressive
Compression mode : Lossy
Bits/(Pixel*Frame) : 0.162
Stream size : 1.29 GiB (88%)
Writing library : XviD 1.2.1 (UTC 2008-12-04)
Audio
ID : 1
Format : AC-3
Format/Info : Audio Coding 3
Mode extension : CM (complete main)
Format settings, Endianness : Big
Codec ID : 2000
Duration : 2h 2mn
Bit rate mode : Constant
Bit rate : 192 Kbps
Channel(s) : 2 channels
Channel positions : Front: L R
Sampling rate : 48.0 KHz
Bit depth : 16 bits
Compression mode : Lossy
Stream size : 169 MiB (11%)
Alignment : Split accross interleaves
Interleave, duration : 40 ms (1.00 video frame)
Interleave, preload duration : 500 ms

Скриншоты


To download the content you need:
1. Download and install torrent client [for Windows] or for mobile system
2. Click on [Download]
Attention.
If the test YOU are NOT a ROBOT - does not work, then You are using an outdated browser.
Install the current browser and click on [Download]

Do not work with Yandex browser. Uploading files to them is erroneous.
Security: torrent client is allowed by Kaspersky.

[en.asmlocator.ru].t4757.torrent 
Torrent: Registered [ 2015-12-02 05:40 ] · 23B585C4254A48E63A8D1B0668B633187BB3487F

Download .torrent

Download

15 KB

Status: checked
Completed: 1 times
Size: 1.46 GB
terms.php
[Profile] [PM]
Display posts:    
Reply to topic

Current time is: 08-Apr 03:13

All times are UTC ± 0



You cannot post new topics in this forum
You cannot reply to topics in this forum
You cannot edit your posts in this forum
You cannot delete your posts in this forum
You cannot vote in polls in this forum
You cannot attach files in this forum
You can download files in this forum
Верим фактам, а не вранью Путина! Факт, что Правительство ведёт Россию к истреблению.
Так как численность населения падает, даже не смотря на приток эмигрантов!
Русская нация вымирает и вырождается, смешиваясь с эмигрантами!
Факт, что военных и граждан предприятий заставляют голосовать за партию Единая Россия и Путина
ПОД СТРАХОМ УВОЛЬНЕНИЯ!
Нам не нужно Правительство, блокирующее личную жизнь, интернет, нарушающее сохранность данных.
Все эти действия финансируются за счёт народа!