Настоящая МакКой / The Real McCoy (Рассел Малкэхи / Russell Mulcahy) [1993, США, криминал, DVDRip] [Fullscreen] DVO (телеканал Перец)

Reply to topic
DL-List and Torrent activity
Size:  1.37 GB   |    Registered:  4 years 4 months   |    Completed:  0 times

Seeder not seen: Never

 
   
 
 
Author Message

star21 ®

Gender: Female

Longevity: 4 years 4 months

Posts: 551945

Location: Екатеринбург

Post 02-Dec-2015 05:41

[Quote]

Настоящая МакКой
The Real McCoy
Fullscreen

Страна: США
Жанр: криминал
Год выпуска: 1993
Продолжительность: 01:40:27-Перевод: Профессиональный (двухголосый закадровый)
телеканал Перец

Текст читали: Елена и Алексей Борзуновы
Cубтитры: нет
Оригинальная аудиодорожка: нет-Режиссер: Рассел Малкэхи / Russell Mulcahy
В ролях: Ким Бэсингер, Вэл Килмер, Теренс Стэмп, Гэйлард Сартэйн, Рэйнор Шэйн, Ник Сирси, Зэк Инглиш, Памела Стаббарт, Дебора Хобарт, Энди Стал, Дин Рэдер-Дюваль-Описание: Молодая очаровательная женщина Кэрин МакКой была схвачена, когда грабила банк. Не впервые она совершала подобное преступление… Отсидев положенный срок, Кэрин вышла на свободу с желанием начать новую жизнь вместе со своим маленьким сыном. Однако кое-кому не давали покоя ее уникальные способности удачно проворачивать криминальные операции по взлому неприступных финансовых крепостей. И нашлись мастера шантажа, похитившие сына Кэрин, чтобы заставить ее пойти на новое дело…-Доп. информация: На первые 11 секунд - вставка из ТВ записи
так как в DVD на это место 2 вставки, не знаю откуда (смотрим семплы)

О переводе: Перевод на трекере появляется впервые
Качество: IPTV (Перец)
Имеется вставка из многоголосого с DVD: 01:25:36 - 01:25:39
Запись и синхронизация:-Сэмпл: минута52сек-Семплы со вставками:
Мой
DVD-Качество видео: DVDRip (спасибо )
Формат видео: AVI
Видео: XVID, 704х528, 4:3, 25,000 кадров/сек, 1745 Кбит/сек
Аудио: AC-3, 48,0 КГц, 192 Кбит/сек, 2 канала (двухголосый Перец)

Сравнение с DVD / NTSC

6 скринов

MediaInfo

Общее
Полное имя : Настоящая МакКой.1993.DVDRip.avi
Формат : AVI
Формат/Информация : Audio Video Interleave
Размер файла : 1,37 Гбайт
Продолжительность : 1 ч. 40 м.
Общий поток : 1947 Кбит/сек
Название фильма : Настоящая МакКой / The Real McCoy / 1993 / DVDRip / Fullscreen
Дата записи : 01.10.2015
Программа кодирования : VirtualDubModRus 1.5.10.2 (build 2542/release)
Библиотека кодирования : VirtualDubMod build 2542/release
Авторское право : mister55555
Примечание : для rutracker.org
Видео
Идентификатор : 0
Формат : MPEG-4 Visual
Профиль формата : Advanced Simple@L5
Параметр BVOP формата : 2
Параметр QPel формата : Нет
Параметр GMC формата : Без точки перехода
Параметр матрицы формата : Выборочная
Идентификатор кодека : XVID
Идентификатор кодека/Подсказка : XviD
Продолжительность : 1 ч. 40 м.
Битрейт : 1745 Кбит/сек
Ширина : 704 пикселя
Высота : 528 пикселей
Соотношение сторон : 4:3
Частота кадров : 25,000 кадров/сек
Цветовое пространство : YUV
Субдискретизация насыщенности : 4:2:0
Битовая глубина : 8 бит
Тип развёртки : Прогрессивная
Метод сжатия : С потерями
Бит/(Пиксели*Кадры) : 0.188
Размер потока : 1,22 Гбайт (90%)
Библиотека кодирования : XviD 73
Аудио
Идентификатор : 1
Формат : AC-3
Формат/Информация : Audio Coding 3
Расширение режима : CM (complete main)
Параметр Endianness формата : Big
Идентификатор кодека : 2000
Продолжительность : 1 ч. 40 м.
Вид битрейта : Постоянный
Битрейт : 192 Кбит/сек
Каналы : 2 канала
Расположение каналов : Front: L R
Частота : 48,0 КГц
Метод сжатия : С потерями
Размер потока : 138 Мбайт (10%)
Выравнивание : Разделение по промежуткам
Продолжительность промежутка : 40 мс. (1,00 видеокадр)
Время предзагрузки промежутка : 500 мс.
Заголовок : многоголосый Перец

Скриншоты

To download the content you need:
1. Download and install torrent client [for Windows] or for mobile system
2. Click on [Download]
Attention.
If the test YOU are NOT a ROBOT - does not work, then You are using an outdated browser.
Install the current browser and click on [Download]

Do not work with Yandex browser. Uploading files to them is erroneous.
Security: torrent client is allowed by Kaspersky.

[en.asmlocator.ru].t4756.torrent 
Torrent: Registered [ 2015-12-02 05:40 ] · 7C45AEACBDBCA2616F0B8119B96E4F488D0AFC39

Download .torrent

Download

14 KB

Status: checked
Completed: 0 times
Size: 1.37 GB
terms.php
[Profile] [PM]
Display posts:    
Reply to topic

Current time is: 03-Apr 03:31

All times are UTC ± 0



You cannot post new topics in this forum
You cannot reply to topics in this forum
You cannot edit your posts in this forum
You cannot delete your posts in this forum
You cannot vote in polls in this forum
You cannot attach files in this forum
You can download files in this forum
Верим фактам, а не вранью Путина! Факт, что Правительство ведёт Россию к истреблению.
Так как численность населения падает, даже не смотря на приток эмигрантов!
Русская нация вымирает и вырождается, смешиваясь с эмигрантами!
Факт, что военных и граждан предприятий заставляют голосовать за партию Единая Россия и Путина
ПОД СТРАХОМ УВОЛЬНЕНИЯ!
Нам не нужно Правительство, блокирующее личную жизнь, интернет, нарушающее сохранность данных.
Все эти действия финансируются за счёт народа!