Поле битвы: Земля / Battlefield Earth: A Saga of the Year 3000 (Роджер Кристиан / Roger Christian) [2000, США, фантастика, WEB-DLRip] MVO (РенТВ)

Reply to topic
DL-List and Torrent activity
Size:  1.37 GB   |    Registered:  4 years 4 months   |    Completed:  0 times

Seeder not seen: Never

 
   
 
 
Author Message

star21 ®

Gender: Female

Longevity: 4 years 4 months

Posts: 551945

Location: Екатеринбург

Post 02-Dec-2015 05:41

[Quote]

Поле битвы: Земля
Battlefield Earth: A Saga of the Year 3000

Страна: США
Жанр: фантастика
Год выпуска: 2000
Продолжительность: 01:57:42-Перевод: Профессиональный (многоголосый закадровый) РенТВ
Cубтитры: нет
Оригинальная аудиодорожка: нет-Режиссер: Роджер Кристиан / Roger Christian
В ролях: Джон Траволта, Барри Пеппер, Форест Уитакер, Ким Котс, Сабина Карсенти, Майкл Бирн, Ричард Тайсон, Келли Престон, Мари-Хосе Кроз, Кристиан Тессьер, Шон Остин-Ольсен, Эрл Паско, Майкл МакРэй-Описание: 3000 год. Уже десять веков Землей правит жестокая раса пришельцев. Поработив людей, гиганты Сайклосы превратили завоеванную планету в источник сырья для своего далекого мира. Избежавшие смерти и рабства земляне первобытными племенами рассеялись по горам и лесам. Но однажды, получив доступ к оружию и технологиям пришельцев, они поднимают восстание. Начинается новая звездная война, в которой одна из цивилизаций обречена на уничтожение…
Фильм получил семь главных "Золотых малин", одна из которых - за "Худший фильм последних 25 лет"-Доп. информация:
О переводе: Перевод на трекере появляется впервые
Качество: IPTV (РенТВ)
Имеются вставки из двухголосого с DVD:
01:21:57 - 01:22:36

01:24:06 - 01:24:38

01:28:46 - 01:29:51

01:34:44 - 01:36:11

01:42:27 - 01:44:00

Запись и синхронизация:-Сэмпл: минута49сек-Качество видео: WEB-DLRip (спасибо Djigara с рутора)
Формат видео: AVI
Видео: XVID, 720х304, 2,35:1, 23,976 кадра/сек, 1461 Кбит/сек
Аудио: AC-3, 48,0 КГц, 192 Кбит/сек, 2 канала (многоголосый РенТВ)

Сравнение с JUSTKANT

6 скринов

MediaInfo

Общее
Полное имя : Поле битвы Земля.2000.WEB-DLRip.avi
Формат : AVI
Формат/Информация : Audio Video Interleave
Размер файла : 1,37 Гбайт
Продолжительность : 1 ч. 57 м.
Общий поток : 1663 Кбит/сек
Дата записи : 29.09.2015
Программа кодирования : VirtualDubModRus 1.5.10.2 (build 2542/release)
Библиотека кодирования : VirtualDubMod build 2542/release
Авторское право : mister55555
Примечание : для rutracker.org
Видео
Идентификатор : 0
Формат : MPEG-4 Visual
Профиль формата : Advanced Simple@L5
Параметр BVOP формата : 2
Параметр QPel формата : Нет
Параметр GMC формата : Без точки перехода
Параметр матрицы формата : Выборочная
Идентификатор кодека : XVID
Идентификатор кодека/Подсказка : XviD
Продолжительность : 1 ч. 57 м.
Битрейт : 1461 Кбит/сек
Ширина : 720 пикселей
Высота : 304 пикселя
Соотношение сторон : 2,35:1
Частота кадров : 23,976 кадра/сек
Цветовое пространство : YUV
Субдискретизация насыщенности : 4:2:0
Битовая глубина : 8 бит
Тип развёртки : Прогрессивная
Метод сжатия : С потерями
Бит/(Пиксели*Кадры) : 0.278
Размер потока : 1,20 Гбайт (88%)
Библиотека кодирования : XviD 73
Аудио
Идентификатор : 1
Формат : AC-3
Формат/Информация : Audio Coding 3
Расширение режима : CM (complete main)
Параметр Endianness формата : Big
Идентификатор кодека : 2000
Продолжительность : 1 ч. 57 м.
Вид битрейта : Постоянный
Битрейт : 192 Кбит/сек
Каналы : 2 канала
Расположение каналов : Front: L R
Частота : 48,0 КГц
Метод сжатия : С потерями
Размер потока : 162 Мбайт (12%)
Выравнивание : Разделение по промежуткам
Продолжительность промежутка : 42 мс. (1,00 видеокадр)
Время предзагрузки промежутка : 500 мс.
Заголовок : многоголосый РенТВ

Скриншот c названием фильма

Скриншоты

To download the content you need:
1. Download and install torrent client [for Windows] or for mobile system
2. Click on [Download]
Attention.
If the test YOU are NOT a ROBOT - does not work, then You are using an outdated browser.
Install the current browser and click on [Download]

Do not work with Yandex browser. Uploading files to them is erroneous.
Security: torrent client is allowed by Kaspersky.

[en.asmlocator.ru].t4755.torrent 
Torrent: Registered [ 2015-12-02 05:40 ] · 09A94F770DB86AF051C111F8097B0275033849EA

Download .torrent

Download

14 KB

Status: checked
Completed: 0 times
Size: 1.37 GB
terms.php
[Profile] [PM]
Display posts:    
Reply to topic

Current time is: 05-Apr 03:34

All times are UTC ± 0



You cannot post new topics in this forum
You cannot reply to topics in this forum
You cannot edit your posts in this forum
You cannot delete your posts in this forum
You cannot vote in polls in this forum
You cannot attach files in this forum
You can download files in this forum
Верим фактам, а не вранью Путина! Факт, что Правительство ведёт Россию к истреблению.
Так как численность населения падает, даже не смотря на приток эмигрантов!
Русская нация вымирает и вырождается, смешиваясь с эмигрантами!
Факт, что военных и граждан предприятий заставляют голосовать за партию Единая Россия и Путина
ПОД СТРАХОМ УВОЛЬНЕНИЯ!
Нам не нужно Правительство, блокирующее личную жизнь, интернет, нарушающее сохранность данных.
Все эти действия финансируются за счёт народа!