Единственный свидетель / Голос из могилы / Voice from the Grave / Crimes of Passion: Voice from the Grave (Дэвид Джексон / David Jackson) [1996, США, триллер, детектив, DVDRip] DVO + Original Eng

Reply to topic
DL-List and Torrent activity
Size:  1.26 GB   |    Registered:  4 years 3 months   |    Completed:  0 times

Seeder not seen: Never

 
   
 
 
Author Message

star21 ®

Gender: Female

Longevity: 4 years 4 months

Posts: 551945

Location: Екатеринбург

Post 02-Dec-2015 05:41

[Quote]

Единственный свидетель / Voice from the Grave / Crimes of Passion: Voice from the Grave
Страна: США
Жанр: триллер, детектив
Год выпуска: 1996
Продолжительность: 01:25:02
Перевод: Двухголосый закадровый (проф.)
Cубтитры: нет
Оригинальная аудиодорожка: английский
Режиссер: Дэвид Джексон / David Jackson
В ролях: Кевин Добсон
Меган Уорд
Джон Терлески
Майкл Райли
Ким Диккенс
Тим Грим
Роберт Неппер
Келли Уильямс
Дэррил Терис
Описание:
1. Аннотация от alenavova
Медсестры Терри и Рене один раз поболтали по душам, а вечером Терри убил неизвестный. Тем более странно, что Рене стала слышать голос Терри и видеть ее призрак. Рене и сама стала говорить голосом Терри, к великому ужасу своего мужа. Голос Терри умолял найти и покарать убийцу, называл его имя (он сотрудник все той же больницы) и раскрывал мотив преступления Но полиция не верила в откровения Рене и не арестовывала убийцу за неимением доказательств. И тогда из тела Рене снова раздался голос, назвав требуемые доказательства... Самое любопытное, что этот телевизионный фильм снят на основе истинного происшествия, описанного в книге Кэрол Меркадо. Если бы все покойники так горели в могиле жаждой мести, преступности бы не было!...
2. Билл беспомощно наблюдает, как его жена Рене впадает в каталептическое состояние. Она что-то говорит, но это не ее голос, это голос ее умершей подруги. Он называет имя убийцы и требует отмщения. Рене переживает странные и пугающие видения, и ей открываются все ужасные подробности убийства Терри.
Поначалу Билл и Рене не знают, что делать, опасаясь, что им никто не поверит. Но, понимая, что дух Терри не прекратит попыток покарать убийцу, они связываются с полицией. Весь Чикаго потрясен известием о вмешательстве мистических сил в дело об убийстве медсестры Терри Деверу. Но сможет ли полиция арестовать преступника, а суд присяжных — вынести вердикт на основании показаний из потустороннего мира?
Доп. информация: Благодарность:
Анна57 - за дорожку DVO с VHS
xelon2006 - за синхрон дорожки.

Релиз
Сэмпл: https://yadi.sk/i/fxYbVxkxjVQJU
Качество видео: DVDRip [by CG]
Формат видео: AVI
Видео: 672x504 (1.33:1), 25 fps, XviD build 64 ~1715 kbps avg, 0.20 bit/pixel
Аудио: 48 kHz, AC3 Dolby Digital, 2/0 (L,R) ch, ~192 kbps
Аудио 2: 48 kHz, MPEG Layer 3, 2 ch, ~192.00 kbps avg Eng

MediaInfo

Единственный свидетель - Voice from the Grave [.by Edich2].avi
Format : AVI
Format/Info : Audio Video Interleave
File size : 1.26 GiB
Duration : 1h 25mn
Overall bit rate : 2 115 Kbps
Movie name : Единственный свидетель - Voice from the Grave [.by Edich2]
Director : by Edich2
Writing application : VirtualDubMod 1.5.10.2 (build 2540/release)
Comment : RuTracker.org
Video
ID : 0
Format : MPEG-4 Visual
Format profile : Advanced Simple@L5
Format settings, BVOP : 2
Format settings, QPel : No
Format settings, GMC : No warppoints
Format settings, Matrix : Default (H.263)
Codec ID : XVID
Codec ID/Hint : XviD
Duration : 1h 25mn
Bit rate : 1 717 Kbps
Width : 672 pixels
Height : 504 pixels
Display aspect ratio : 4:3
Frame rate : 25.000 fps
Color space : YUV
Chroma subsampling : 4:2:0
Bit depth : 8 bits
Scan type : Progressive
Compression mode : Lossy
Bits/(Pixel*Frame) : 0.203
Stream size : 1.02 GiB (81%)
Writing library : XviD 64
Audio #1
ID : 1
Format : AC-3
Format/Info : Audio Coding 3
Mode extension : CM (complete main)
Format settings, Endianness : Big
Codec ID : 2000
Duration : 1h 25mn
Bit rate mode : Constant
Bit rate : 192 Kbps
Channel(s) : 2 channels
Channel positions : Front: L R
Sampling rate : 48.0 KHz
Bit depth : 16 bits
Compression mode : Lossy
Stream size : 117 MiB (9%)
Alignment : Split accross interleaves
Interleave, duration : 40 ms (1.00 video frame)
Interleave, preload duration : 500 ms
Audio #2
ID : 2
Format : MPEG Audio
Format version : Version 1
Format profile : Layer 3
Codec ID : 55
Codec ID/Hint : MP3
Duration : 1h 25mn
Bit rate mode : Constant
Bit rate : 192 Kbps
Channel(s) : 2 channels
Sampling rate : 48.0 KHz
Compression mode : Lossy
Stream size : 117 MiB (9%)
Alignment : Split accross interleaves
Interleave, duration : 40 ms (1.00 video frame)
Interleave, preload duration : 500 ms

To download the content you need:
1. Download and install torrent client [for Windows] or for mobile system
2. Click on [Download]
Attention.
If the test YOU are NOT a ROBOT - does not work, then You are using an outdated browser.
Install the current browser and click on [Download]

Do not work with Yandex browser. Uploading files to them is erroneous.
Security: torrent client is allowed by Kaspersky.

[en.asmlocator.ru].t4751.torrent 
Torrent: Registered [ 2015-12-02 05:40 ] · EAC243BBBB35FAEBE2E95888A1766721D829812A

Download .torrent

Download

13 KB

Status: checked
Completed: 0 times
Size: 1.26 GB
terms.php
[Profile] [PM]
Display posts:    
Reply to topic

Current time is: 29-Mar 17:56

All times are UTC ± 0



You cannot post new topics in this forum
You cannot reply to topics in this forum
You cannot edit your posts in this forum
You cannot delete your posts in this forum
You cannot vote in polls in this forum
You cannot attach files in this forum
You can download files in this forum
Верим фактам, а не вранью Путина! Факт, что Правительство ведёт Россию к истреблению.
Так как численность населения падает, даже не смотря на приток эмигрантов!
Русская нация вымирает и вырождается, смешиваясь с эмигрантами!
Факт, что военных и граждан предприятий заставляют голосовать за партию Единая Россия и Путина
ПОД СТРАХОМ УВОЛЬНЕНИЯ!
Нам не нужно Правительство, блокирующее личную жизнь, интернет, нарушающее сохранность данных.
Все эти действия финансируются за счёт народа!