Пусть получит своё / Так ему и надо / Let Him Have It (Питер Медак / Peter Medak) [1991, Франция, Великобритания, Криминальная драма, DVDRip] AVO (Юрий Живов)

Reply to topic
DL-List and Torrent activity
Size:  1.43 GB   |    Registered:  4 years 3 months   |    Completed:  0 times

Seeder not seen: Never

 
   
 
 
Author Message

star21 ®

Gender: Female

Longevity: 4 years 4 months

Posts: 551945

Location: Екатеринбург

Post 02-Dec-2015 05:41

[Quote]

Пусть получит своё / Так ему и надо / Let Him Have It
Страна: Франция, Великобритания
Жанр: Криминальная драма
Год выпуска: 1991
Продолжительность: 01:55:13
Перевод: Авторский (одноголосый закадровый) Юрий Живов
Cубтитры: нет
Режиссер: Питер Медак / Peter Medak
В ролях: Кристофер Экклстон, Том Кортни, Айлин Эткинс, Ребекка Экклстон, Питер Экклстон, Крэйг Тернер, П.Дж. Николас, Брэт Уолкер, Уолтер Спэрроу, Эдвард Хардуик
Описание: Жесткая криминальная драма. Мальчишки послевоенной Англии страшно хотят быть гангстерами. Один из них, Крэйг, тяжело переживая разлуку со старшим братом, матерым преступником, осужденным на 20 лет, подбивает Дерека, юношу умственно неполноценного, участвовать в преступлениях. Во время одного из таких предприятий Крэйг убил полицейского, что потрясло Дерека, толком не отдававшего себе отчет в том, что происходило. Дерек даже пытался остановить Крэйга, но тот готов был убить и его. Обоих мальчишек (Крэйг спал с пистолетом и игрушками) арестовали и судили. Убийцу Крэйга посадили в тюрьму, так как ему не было 16 лет, а полоумного Дерека (его даже в армию не взяли) приговорили к повешению. Фильм, поставленный по реальным событиям, отличается психологической глубиной и великолепной игрой лучших британских актеров. (М. Иванов)
Доп. информация: Дорожка с Ю. Живовым синхронизирована, ремастерирована, преобразована в СТЕРЕО и наложена ale_x2008 при помощи Adobe Audition, iZotope RX2, Sony Vegas и VirtualDubMod.
За оцифрованную с VHS дорожку благодарим - alenavova

Релиз
Сэмпл: https://yadi.sk/i/SADiLpZXjUHZL
Качество видео: DVDRip
Формат видео: AVI
Видео: 704x384 (1.83:1), 23.976 fps, XviD build 50 ~1569 kbps avg, 0.24 bit/pixel
Аудио: AC3 Dolby Digital, 48000Hz, 2/0 (L,R) ch (stereo), 192.00 kbps avg

MediaInfo

Пусть получит своё - Let Him Have It (by ale_x2008) fix.avi
Format : AVI
Format/Info : Audio Video Interleave
File size : 1.43 GiB
Duration : 1h 55mn
Overall bit rate : 1 771 Kbps
Movie name : Пусть получит своё - Let Him Have It (by ale_x2008) fix
Director : by Edich2
Writing application : VirtualDubMod 1.5.10.2 (build 2540/release)
Comment : RuTracker.org
Video
ID : 0
Format : MPEG-4 Visual
Format profile : Advanced Simple@L5
Format settings, BVOP : 1
Format settings, QPel : No
Format settings, GMC : No warppoints
Format settings, Matrix : Default (MPEG)
Codec ID : XVID
Codec ID/Hint : XviD
Duration : 1h 55mn
Bit rate : 1 570 Kbps
Width : 704 pixels
Height : 384 pixels
Display aspect ratio : 1.85:1
Frame rate : 23.976 fps
Color space : YUV
Chroma subsampling : 4:2:0
Bit depth : 8 bits
Scan type : Progressive
Compression mode : Lossy
Bits/(Pixel*Frame) : 0.242
Stream size : 1.26 GiB (89%)
Writing library : XviD 1.2.1 (UTC 2008-12-04)
Audio
ID : 1
Format : AC-3
Format/Info : Audio Coding 3
Mode extension : CM (complete main)
Format settings, Endianness : Big
Codec ID : 2000
Duration : 1h 55mn
Bit rate mode : Constant
Bit rate : 192 Kbps
Channel(s) : 2 channels
Channel positions : Front: L R
Sampling rate : 48.0 KHz
Bit depth : 16 bits
Compression mode : Lossy
Stream size : 158 MiB (11%)
Alignment : Split accross interleaves
Interleave, duration : 42 ms (1.00 video frame)
Interleave, preload duration : 500 ms

Скриншоты



To download the content you need:
1. Download and install torrent client [for Windows] or for mobile system
2. Click on [Download]
Attention.
If the test YOU are NOT a ROBOT - does not work, then You are using an outdated browser.
Install the current browser and click on [Download]

Do not work with Yandex browser. Uploading files to them is erroneous.
Security: torrent client is allowed by Kaspersky.

[en.asmlocator.ru].t4749.torrent 
Torrent: Registered [ 2015-12-02 05:40 ] · B0FD08E5838ABA2034C2CFB147555CF4605D945D

Download .torrent

Download

15 KB

Status: checked
Completed: 0 times
Size: 1.43 GB
terms.php
[Profile] [PM]
Display posts:    
Reply to topic

Current time is: 29-Mar 00:06

All times are UTC ± 0



You cannot post new topics in this forum
You cannot reply to topics in this forum
You cannot edit your posts in this forum
You cannot delete your posts in this forum
You cannot vote in polls in this forum
You cannot attach files in this forum
You can download files in this forum
Верим фактам, а не вранью Путина! Факт, что Правительство ведёт Россию к истреблению.
Так как численность населения падает, даже не смотря на приток эмигрантов!
Русская нация вымирает и вырождается, смешиваясь с эмигрантами!
Факт, что военных и граждан предприятий заставляют голосовать за партию Единая Россия и Путина
ПОД СТРАХОМ УВОЛЬНЕНИЯ!
Нам не нужно Правительство, блокирующее личную жизнь, интернет, нарушающее сохранность данных.
Все эти действия финансируются за счёт народа!