Бетховен 3 / Beethoven\'s 3rd (Дэвид М. Эванс / David M. Evans) [2000, США, комедия, семейный, DVDRip] MVO (Первый Канал) + MVO (СТС) + Original Eng

Reply to topic
DL-List and Torrent activity
Size:  1.46 GB   |    Registered:  4 years 4 months   |    Completed:  0 times

Seeder not seen: Never

 
   
 
 
Author Message

star21 ®

Gender: Female

Longevity: 4 years 4 months

Posts: 551945

Location: Екатеринбург

Post 02-Dec-2015 05:41

[Quote]

Бетховен 3 / Beethoven's 3rd-Он возвращается на своё законное место. К любимым и беззащитным.
Чтобы принести разнообразие, развеселить, поиграть с детьми, поплавать, подыскать занятия на воскресенье.
И просто снять хороший фильм.
Продолжение самой любимой комедии.
- Год выпуска: 2000
Страна: США
Жанр: комедия, семейный
Продолжительность: 01:34:02
Перевод: Профессиональный (многоголосый закадровый) - Первый Канал
Перевод 2: Профессиональный (многоголосый закадровый) - СТС
Cубтитры: нет
Оригинальная аудиодорожка: английский
Режиссер: Дэвид М. Эванс / David M. Evans
В ролях: Джадж Райнхолд (Richard Newton), Джулия Суини (Beth Newton), Джо Пихлер (Brennan Newton), Михаэлла Галло (Sara Newton), Майк Чикколини (Tommy), Джеймс Марш (Bill (William)), Даниэла Китон (Penny), Фрэнк Горшин (Uncle Morrie Newton), Холли Митчелл (Kennel Employee), Марк Карлтон (Officer Ranger Smith)-Мировая премьера: 25 июля 2000-Описание: В третьей части приключений знаменитого сенбернара забавный «песик» отправляется в головокружительное путешествие. Для главы семьи Ньютонов, Ричарда, долгая поездка к родственникам — увлекательнейшее занятие. Для его шумной семьи — утомительное, невыносимо скучное мероприятие. Однако все разительным образом меняется, когда «на борту» обнаруживается новый лохматый пассажир с печальными глазами. Им, как ни странно, оказывается наш старый друг Бетховен, который, не прочь «прошвырнуться» по стране и посмотреть мир.-Огромная благодарность:
- .
- собственная запись перевода с Первого Канала в 2000-х годах через видеомагнитофон и оцифровка с видеокассеты.
- собственная запись перевода с телеканала СТС в начале 2010 года через спутник.
- синхронизация переводов.-Данные переводы на трекере появляются впервые..-На русский язык фильм озвучен по заказу Первого Канала.
Текст читают Сергей Быстрицкий, Наталья Гурзо и Олег Форостенко.
На русский язык фильм озвучен по заказу СТС.
Текст читают Игорь Тарадайкин, Ирина Гришина и др.-Рейтинг

MPAA: G - Нет возрастных ограничений.-Качество видео: DVDRip
Формат видео: AVI -> //СЭМПЛ//
Видео: XviD, 720x416 (1.731), 25.000 fps, 1632 kbps avg
Аудио:
1 - 48 khz, AC3 Dolby Digital, 2/0 (L,R) ch, ~192 kbps [Первый Канал] VHSRip
2 - 48 khz, AC3 Dolby Digital, 2/0 (L,R) ch, ~192 kbps [СТС] SATRip
3 - 48 khz, AC3 Dolby Digital, 2/0 (L,R) ch, ~192 kbps [Английский]

MediaInfo

General
Complete name : D:\Торрент Файлы\Будущие Релизы на Трекере\1.35 - 1.46 и более гб\Бетховен 3 (Первый Канал + СТС + Оригинал).avi
Format : AVI
Format/Info : Audio Video Interleave
File size : 1.46 GiB
Duration : 1h 34mn
Overall bit rate : 2 227 Kbps
Writing application : VirtualDubMod 1.5.10.3 | www.virtualdub-fr.org || (build 2550/release)
Writing library : VirtualDubMod build 2550/release
Video
ID : 0
Format : MPEG-4 Visual
Format profile : Advanced Simple@L5
Format settings, BVOP : 1
Format settings, QPel : No
Format settings, GMC : No warppoints
Format settings, Matrix : Custom
Codec ID : XVID
Codec ID/Hint : XviD
Duration : 1h 34mn
Bit rate : 1 632 Kbps
Width : 720 pixels
Height : 416 pixels
Display aspect ratio : 1.731
Frame rate : 25.000 fps
Color space : YUV
Chroma subsampling : 4:2:0
Bit depth : 8 bits
Scan type : Progressive
Compression mode : Lossy
Bits/(Pixel*Frame) : 0.218
Stream size : 1.07 GiB (73%)
Writing library : XviD 1.2.0.dev47 (UTC 2006-11-01)
Audio #1
ID : 1
Format : AC-3
Format/Info : Audio Coding 3
Mode extension : CM (complete main)
Format settings, Endianness : Big
Codec ID : 2000
Duration : 1h 34mn
Bit rate mode : Constant
Bit rate : 192 Kbps
Channel(s) : 2 channels
Channel positions : Front: L R
Sampling rate : 48.0 KHz
Compression mode : Lossy
Stream size : 129 MiB (9%)
Alignment : Split accross interleaves
Interleave, duration : 40 ms (1.00 video frame)
Interleave, preload duratio : 500 ms
Language : Russian
Audio #2
ID : 2
Format : AC-3
Format/Info : Audio Coding 3
Mode extension : CM (complete main)
Format settings, Endianness : Big
Codec ID : 2000
Duration : 1h 34mn
Bit rate mode : Constant
Bit rate : 192 Kbps
Channel(s) : 2 channels
Channel positions : Front: L R
Sampling rate : 48.0 KHz
Compression mode : Lossy
Stream size : 129 MiB (9%)
Alignment : Split accross interleaves
Interleave, duration : 40 ms (1.00 video frame)
Interleave, preload duratio : 500 ms
Audio #3
ID : 3
Format : AC-3
Format/Info : Audio Coding 3
Mode extension : CM (complete main)
Format settings, Endianness : Big
Codec ID : 2000
Duration : 1h 34mn
Bit rate mode : Constant
Bit rate : 192 Kbps
Channel(s) : 2 channels
Channel positions : Front: L R
Sampling rate : 48.0 KHz
Compression mode : Lossy
Stream size : 129 MiB (9%)
Alignment : Split accross interleaves
Interleave, duration : 40 ms (1.00 video frame)
Interleave, preload duratio : 500 ms

Скриншот c названием фильма

Скриншоты

To download the content you need:
1. Download and install torrent client [for Windows] or for mobile system
2. Click on [Download]
Attention.
If the test YOU are NOT a ROBOT - does not work, then You are using an outdated browser.
Install the current browser and click on [Download]

Do not work with Yandex browser. Uploading files to them is erroneous.
Security: torrent client is allowed by Kaspersky.

[en.asmlocator.ru].t4747.torrent 
Torrent: Registered [ 2015-12-02 05:40 ] · 793C5A233E89753E57A9AF15288B9703B3BD5AED

Download .torrent

Download

15 KB

Status: checked
Completed: 0 times
Size: 1.46 GB
terms.php
[Profile] [PM]
Display posts:    
Reply to topic

Current time is: 03-Apr 09:51

All times are UTC ± 0



You cannot post new topics in this forum
You cannot reply to topics in this forum
You cannot edit your posts in this forum
You cannot delete your posts in this forum
You cannot vote in polls in this forum
You cannot attach files in this forum
You can download files in this forum
Верим фактам, а не вранью Путина! Факт, что Правительство ведёт Россию к истреблению.
Так как численность населения падает, даже не смотря на приток эмигрантов!
Русская нация вымирает и вырождается, смешиваясь с эмигрантами!
Факт, что военных и граждан предприятий заставляют голосовать за партию Единая Россия и Путина
ПОД СТРАХОМ УВОЛЬНЕНИЯ!
Нам не нужно Правительство, блокирующее личную жизнь, интернет, нарушающее сохранность данных.
Все эти действия финансируются за счёт народа!