Миссис Скрудж / Ms. Scrooge (Джон Корти / John Korty) [1997, США, Детский, семейный, фэнтези, драма, VHSRip] DVO (Премьер)

Reply to topic
DL-List and Torrent activity
Size:  902 MB   |    Registered:  4 years 4 months   |    Completed:  0 times

Seeder not seen: Never

 
   
 
 
Author Message

star21 ®

Gender: Female

Longevity: 4 years 4 months

Posts: 551945

Location: Екатеринбург

Post 02-Dec-2015 05:41

[Quote]

Миссис Скрудж / Ms. Scrooge
Страна: США
Жанр: Детский, семейный, фэнтези, драма
Год выпуска: 1997
Продолжительность: 01:23:5
Перевод: Профессиональный (двухголосый закадровый) Премьер
Cубтитры: нет
Режиссер: Джон Корти / John Korty
В ролях: Сисили Тайсон /Cicely Tyson/, Майкл Бич /Michael Beach/, Джон Буржуа /John Bourgeois/, Рэйвен Лэрримор-Келли /Raeven Larrymore-Kelly/, Кэрен Глэйв /Karen Glave/, Кен Джеймс /Ken James/, Арсинеи Ханьян /Arsinee Khanjian/, Кэтрин Хелмонд /Katherine Helmond/
Описание: По роману Чарлза Диккенса "Рождественская песнь".
В роли скряги Скруджа снялась... женщина (Сисели Тайсон). Богатая банкирша Эбенита Скрудж, научилась деловой хватке и умению плести интриги у своей (ныне покойной) партнерши Мод Марли (Кэтрин Хелмонд). Появление призрака Мод накануне Рождества в корне меняет жизнь Эбениты. Множество призраков из прошлого, настоящего и будущего один за другим наносят ей визиты, рисуя в мрачных красках ее жизнь и будущие неприятности, если она не изменит в корне своего поведения. (Иванов М.)
Доп. информация: Благодарность:
Fikaloid - за дорожку DVO с VHS
xelon2006 - за синхрон дорожки.

Релиз
Сэмпл: https://yadi.sk/i/AFtJPnwBjWncB
Качество видео: VHSRip
Формат видео: AVI
Видео: 720x544 (1.32:1), 25 fps, XviD build 50 ~1302 kbps avg, 0.13 bit/pixel
Аудио: 48 kHz, AC3 Dolby Digital, 2/0 (L,R) ch, ~192 kbps

MediaInfo

Миссис Скрудж - Ms Scrooge.1997 [by Edich2].avi
Format : AVI
Format/Info : Audio Video Interleave
File size : 902 MiB
Duration : 1h 23mn
Overall bit rate : 1 504 Kbps
Movie name : Миссис Скрудж - Ms Scrooge.1997 [by Edich2]
Director : by Edich2
Writing application : VirtualDubMod 1.5.4.1 (build 2178/release)
Comment : RuTracker.org
Video
ID : 0
Format : MPEG-4 Visual
Format profile : Advanced Simple@L5
Format settings, BVOP : 1
Format settings, QPel : No
Format settings, GMC : No warppoints
Format settings, Matrix : Custom
Codec ID : XVID
Codec ID/Hint : XviD
Duration : 1h 23mn
Bit rate : 1 302 Kbps
Width : 720 pixels
Height : 544 pixels
Display aspect ratio : 4:3
Frame rate : 25.000 fps
Color space : YUV
Chroma subsampling : 4:2:0
Bit depth : 8 bits
Scan type : Progressive
Compression mode : Lossy
Bits/(Pixel*Frame) : 0.133
Stream size : 781 MiB (87%)
Writing library : XviD 1.2.1 (UTC 2008-12-04)
Audio
ID : 1
Format : AC-3
Format/Info : Audio Coding 3
Mode extension : CM (complete main)
Format settings, Endianness : Big
Codec ID : 2000
Duration : 1h 23mn
Bit rate mode : Constant
Bit rate : 192 Kbps
Channel(s) : 2 channels
Channel positions : Front: L R
Sampling rate : 48.0 KHz
Bit depth : 16 bits
Compression mode : Lossy
Stream size : 115 MiB (13%)
Alignment : Aligned on interleaves
Interleave, duration : 40 ms (1.00 video frame)
Interleave, preload duration : 512 ms

Скриншоты



To download the content you need:
1. Download and install torrent client [for Windows] or for mobile system
2. Click on [Download]
Attention.
If the test YOU are NOT a ROBOT - does not work, then You are using an outdated browser.
Install the current browser and click on [Download]

Do not work with Yandex browser. Uploading files to them is erroneous.
Security: torrent client is allowed by Kaspersky.

[en.asmlocator.ru].t4746.torrent 
Torrent: Registered [ 2015-12-02 05:40 ] · 7A31D39D503589392F0511EB24921CC8F9B3C5AD

Download .torrent

Download

18 KB

Status: checked
Completed: 0 times
Size: 902 MB
terms.php
[Profile] [PM]
Display posts:    
Reply to topic

Current time is: 03-Apr 03:52

All times are UTC ± 0



You cannot post new topics in this forum
You cannot reply to topics in this forum
You cannot edit your posts in this forum
You cannot delete your posts in this forum
You cannot vote in polls in this forum
You cannot attach files in this forum
You can download files in this forum
Верим фактам, а не вранью Путина! Факт, что Правительство ведёт Россию к истреблению.
Так как численность населения падает, даже не смотря на приток эмигрантов!
Русская нация вымирает и вырождается, смешиваясь с эмигрантами!
Факт, что военных и граждан предприятий заставляют голосовать за партию Единая Россия и Путина
ПОД СТРАХОМ УВОЛЬНЕНИЯ!
Нам не нужно Правительство, блокирующее личную жизнь, интернет, нарушающее сохранность данных.
Все эти действия финансируются за счёт народа!