Приключения Рокки и Буллвинкля / The Adventures of Rocky & Bullwinkle (Дес МакАнуфф / Des McAnuff) [2000, США, Германия, мультфильм, комедия, приключения, семейный, DVDRip] MVO (СТС) + Original Eng

Reply to topic
DL-List and Torrent activity
Size:  1.38 GB   |    Registered:  4 years 4 months   |    Completed:  0 times

Seeder not seen: Never

 
   
 
 
Author Message

star21 ®

Gender: Female

Longevity: 4 years 4 months

Posts: 551945

Location: Екатеринбург

Post 02-Dec-2015 05:41

[Quote]

Приключения Рокки и Буллвинкля / The Adventures of Rocky & Bullwinkle-Америка опять в опасности.
Злодеи задумали новую пакость.
Президенту США могут помочь только две мультяшки и симпатичный агент ФБР.
- Год выпуска: 2000
Страна: США, Германия
Жанр: мультфильм, комедия, приключения, семейный
Продолжительность: 01:27:57
Перевод: Профессиональный (многоголосый закадровый) - СТС
Cубтитры: нет
Оригинальная аудиодорожка: английский
Режиссер: Дес МакАнуфф / Des McAnuff
В ролях: Пайпер Перабо (Karen Sympathy), Роберт де Ниро (Fearless Leader), Рене Руссо (Natasha), Джейсон Александр (Boris), Рэнди Куэйд (Cappy von Trapment), Джун Форей (Rocky / Cartoon Natasha Fatale / рассказчик's Mother), Кит Скотт (Bullwinkle / рассказчик / Cartoon Boris Badenov / Cartoon Fearless Leader), Джанин Гарофало (Minnie Mogul), Карл Райнер (P.G. Biggershot), Джонатан Уинтерс (Whoppa Chopper Pilot / Ohio Cop with Bullhorn / Jeb), Джон Гудман (Oklahoma Cop), Дрена де Ниро (RBTV Lackey), Вупи Голдберг (Judge Cameo)-Мировая премьера: 24 июня 2000-Описание: Двое злодеев времен «холодной войны», злые шпионы из Поттсильвании Борис Баденов и Наташа Фаталь объединяют свои усилия с современным медиа-магнатом — Бесстрашным Лидером, который строит коварные планы завоевания мира. Не в силах справиться со злодеями, ФБР призывает на помощь бесстрашную парочку — говорящего лося Буллвинкля и летающую белку Рокки. В основу ленты положен популярный телевизионный мультсериал 60-х годов. Роберт Де Ниро всегда был большим его поклонником, и поэтому производство картины осуществила его кинокомпания Tribeca Prods., а сам он не только исполнил одну из ролей, но и выступил в качестве продюсера. В эпизодических ролях снялись такие знаменитости, как Билли Кристал, Джон Гудман, Вупи Голдберг, Джанин Гарофало и Карл Райнер. Компьютерные спецэффекты создала компания ILM.-Огромная благодарность:
- .
- собственная запись перевода с телеканала СТС в начале 2000-х годов через видеомагнитофон и оцифровка с видеокассеты.
- синхронизация перевода.-Данный перевод на трекере появляется впервые-На русский язык фильм озвучен по заказу телеканала СТС.
Текст читают Владимир Антоник, Никита Прозоровский, Людмила Ильина и Лариса Некипелова..-Рейтинг

MPAA: PG - Рекомендуется присутствие родителей.-Качество видео: DVDRip
Формат видео: AVI -> //Сэмпл//
Видео: XviD, 704x384 (1,85:1), 25.000 fps, 1598 kbps avg
Аудио:
1 - 48 khz, AC3 Dolby Digital, 2/0 (L,R) ch, ~256 kbps [СТС] VHSRip
2 - 48 khz, AC3 Dolby Digital, 5/1 (L C R, L R, LFE) ch, ~384 kbps [Английский]

MediaInfo

General
Complete name : D:\Торрент Файлы\Будущие Релизы на Трекере\1.35 - 1.46 и более гб\Приключения Рокки и Бульвинкля (СТС + Оригинал).avi
Format : AVI
Format/Info : Audio Video Interleave
File size : 1.38 GiB
Duration : 1h 27mn
Overall bit rate : 2 253 Kbps
Writing application : VirtualDubMod 1.5.10.3 | www.virtualdub-fr.org || (build 2550/release)
Writing library : VirtualDubMod build 2550/release
Video
ID : 0
Format : MPEG-4 Visual
Format profile : Advanced Simple@L5
Format settings, BVOP : 1
Format settings, QPel : No
Format settings, GMC : No warppoints
Format settings, Matrix : Custom
Codec ID : XVID
Codec ID/Hint : XviD
Duration : 1h 27mn
Bit rate : 1 598 Kbps
Width : 704 pixels
Height : 384 pixels
Display aspect ratio : 1.85:1
Frame rate : 25.000 fps
Color space : YUV
Chroma subsampling : 4:2:0
Bit depth : 8 bits
Scan type : Progressive
Compression mode : Lossy
Bits/(Pixel*Frame) : 0.236
Stream size : 1 005 MiB (71%)
Writing library : XviD 1.2.1 (UTC 2008-12-04)
Audio #1
ID : 1
Format : AC-3
Format/Info : Audio Coding 3
Mode extension : CM (complete main)
Format settings, Endianness : Big
Codec ID : 2000
Duration : 1h 27mn
Bit rate mode : Constant
Bit rate : 256 Kbps
Channel(s) : 2 channels
Channel positions : Front: L R
Sampling rate : 48.0 KHz
Compression mode : Lossy
Stream size : 161 MiB (11%)
Alignment : Split accross interleaves
Interleave, duration : 40 ms (1.00 video frame)
Interleave, preload duratio : 500 ms
Audio #2
ID : 2
Format : AC-3
Format/Info : Audio Coding 3
Mode extension : CM (complete main)
Format settings, Endianness : Big
Codec ID : 2000
Duration : 1h 27mn
Bit rate mode : Constant
Bit rate : 384 Kbps
Channel(s) : 6 channels
Channel positions : Front: L C R, Side: L R, LFE
Sampling rate : 48.0 KHz
Compression mode : Lossy
Stream size : 242 MiB (17%)
Alignment : Split accross interleaves
Interleave, duration : 40 ms (1.00 video frame)
Interleave, preload duratio : 500 ms

Скриншот c названием фильма

Скриншоты

To download the content you need:
1. Download and install torrent client [for Windows] or for mobile system
2. Click on [Download]
Attention.
If the test YOU are NOT a ROBOT - does not work, then You are using an outdated browser.
Install the current browser and click on [Download]

Do not work with Yandex browser. Uploading files to them is erroneous.
Security: torrent client is allowed by Kaspersky.

[en.asmlocator.ru].t4745.torrent 
Torrent: Registered [ 2015-12-02 05:40 ] · 184C7BF86780788414858CC5F5F649D42768CB3F

Download .torrent

Download

14 KB

Status: checked
Completed: 0 times
Size: 1.38 GB
terms.php
[Profile] [PM]
Display posts:    
Reply to topic

Current time is: 04-Apr 14:59

All times are UTC ± 0



You cannot post new topics in this forum
You cannot reply to topics in this forum
You cannot edit your posts in this forum
You cannot delete your posts in this forum
You cannot vote in polls in this forum
You cannot attach files in this forum
You can download files in this forum
Верим фактам, а не вранью Путина! Факт, что Правительство ведёт Россию к истреблению.
Так как численность населения падает, даже не смотря на приток эмигрантов!
Русская нация вымирает и вырождается, смешиваясь с эмигрантами!
Факт, что военных и граждан предприятий заставляют голосовать за партию Единая Россия и Путина
ПОД СТРАХОМ УВОЛЬНЕНИЯ!
Нам не нужно Правительство, блокирующее личную жизнь, интернет, нарушающее сохранность данных.
Все эти действия финансируются за счёт народа!