Убийство по-американски / Чисто американское убийство / All-American Murder (Энсон Уильямс / Anson Williams) [1991, США, триллер, мелодрама, детектив, DVDRip] AVO (Юрий Живов) + MVO

Reply to topic
DL-List and Torrent activity
Size:  1.42 GB   |    Registered:  4 years 3 months   |    Completed:  0 times

Seeder not seen: Never

 
   
 
 
Author Message

star21 ®

Gender: Female

Longevity: 4 years 4 months

Posts: 551945

Location: Екатеринбург

Post 02-Dec-2015 05:41

[Quote]

Убийство по-американски / Чисто американское убийство / All-American Murder
Страна: США
Жанр: триллер, мелодрама, детектив
Год выпуска: 1991
Продолжительность: 01:29:32
Перевод: Авторский (одноголосый закадровый) Юрий Живов
Перевод 2: Профессиональный (многоголосый закадровый)
Cубтитры: нет
Режиссер: Энсон Уильямс / Anson Williams
В ролях: Кристофер Уокен / Christopher Walken, Чарли Шлэттер, Джози Биссет, Джоанна Кэссиди, Ричард Кайнд, Вуди Уотсон, Митчел Андерсон, Эми Мур Дэвис, Дж. К. Куин, Крэйг Стаут
Описание: Чарли Шлэттер, сын богатого и влиятельного человека, - бедовый парень, но не злодей. Папаша устраивает его после очередного привода в полицию в престижный колледж, но ему снова не повезло. Кто-то совершает убийство, а подозрения падают на него. Полиция дает ему 24 часа, чтобы доказать свою невиновность, а для этого ему нужно найти настоящего убийцу. Неплохой триллер с элементами комедии. Кристофер Уокен в роли детектива. (Иванов М.)
Доп. информация: Дорожка с Ю. Живовым синхронизирована, ремастерирована и наложена ale_x2008 при помощи Adobe Audition, iZotope RX2, Sony Vegas и VirtualDubMod.
За оцифрованную с VHS дорожку благодарим - alenavova

Релиз
Сэмпл: https://yadi.sk/i/UengbActjXBMd
Качество видео: DVDRip
Формат видео: AVI
Видео: XviD build 50, 704x528 (1.33:1), 25.00 fps, 1617 kbps avg, 0.17 bit/pixel
Аудио: AC3 Dolby Digital, 48000Hz, 2/0 (L,R) ch (mono), 192.00 kbps avg
Аудио 2: 48 kHz, AC3 Dolby Digital, 3/2 (L,C,R,l,r) + LFE ch, ~448 kbps

MediaInfo

Убийство по-американски - All-American Murder [by Edich2].avi
Format : AVI
Format/Info : Audio Video Interleave
File size : 1.42 GiB
Duration : 1h 29mn
Overall bit rate : 2 272 Kbps
Movie name : Убийство по-американски - All-American Murder [by Edich2]
Director : by Edich2
Writing application : VirtualDubMod 1.5.10.2 (build 2540/release)
Comment : RuTracker.org
Video
ID : 0
Format : MPEG-4 Visual
Format profile : Advanced Simple@L5
Format settings, BVOP : 1
Format settings, QPel : No
Format settings, GMC : No warppoints
Format settings, Matrix : Default (MPEG)
Codec ID : XVID
Codec ID/Hint : XviD
Duration : 1h 29mn
Bit rate : 1 618 Kbps
Width : 704 pixels
Height : 528 pixels
Display aspect ratio : 4:3
Frame rate : 25.000 fps
Color space : YUV
Chroma subsampling : 4:2:0
Bit depth : 8 bits
Scan type : Progressive
Compression mode : Lossy
Bits/(Pixel*Frame) : 0.174
Stream size : 1.01 GiB (71%)
Writing library : XviD 1.2.1 (UTC 2008-12-04)
Audio #1
ID : 1
Format : AC-3
Format/Info : Audio Coding 3
Mode extension : CM (complete main)
Format settings, Endianness : Big
Codec ID : 2000
Duration : 1h 29mn
Bit rate mode : Constant
Bit rate : 192 Kbps
Channel(s) : 2 channels
Channel positions : Front: L R
Sampling rate : 48.0 KHz
Bit depth : 16 bits
Compression mode : Lossy
Stream size : 123 MiB (8%)
Alignment : Split accross interleaves
Interleave, duration : 40 ms (1.00 video frame)
Interleave, preload duration : 500 ms
Audio #2
ID : 2
Format : AC-3
Format/Info : Audio Coding 3
Mode extension : CM (complete main)
Format settings, Endianness : Big
Codec ID : 2000
Duration : 1h 29mn
Bit rate mode : Constant
Bit rate : 448 Kbps
Channel(s) : 6 channels
Channel positions : Front: L C R, Side: L R, LFE
Sampling rate : 48.0 KHz
Bit depth : 16 bits
Compression mode : Lossy
Stream size : 287 MiB (20%)
Alignment : Split accross interleaves
Interleave, duration : 40 ms (1.00 video frame)
Interleave, preload duration : 500 ms

Скриншоты

To download the content you need:
1. Download and install torrent client [for Windows] or for mobile system
2. Click on [Download]
Attention.
If the test YOU are NOT a ROBOT - does not work, then You are using an outdated browser.
Install the current browser and click on [Download]

Do not work with Yandex browser. Uploading files to them is erroneous.
Security: torrent client is allowed by Kaspersky.

[en.asmlocator.ru].t4744.torrent 
Torrent: Registered [ 2015-12-02 05:40 ] · DF39DDDD4BB4AB8F3D45414263E841F41BF4FE6C

Download .torrent

Download

15 KB

Status: checked
Completed: 0 times
Size: 1.42 GB
terms.php
[Profile] [PM]
Display posts:    
Reply to topic

Current time is: 30-Mar 01:05

All times are UTC ± 0



You cannot post new topics in this forum
You cannot reply to topics in this forum
You cannot edit your posts in this forum
You cannot delete your posts in this forum
You cannot vote in polls in this forum
You cannot attach files in this forum
You can download files in this forum
Верим фактам, а не вранью Путина! Факт, что Правительство ведёт Россию к истреблению.
Так как численность населения падает, даже не смотря на приток эмигрантов!
Русская нация вымирает и вырождается, смешиваясь с эмигрантами!
Факт, что военных и граждан предприятий заставляют голосовать за партию Единая Россия и Путина
ПОД СТРАХОМ УВОЛЬНЕНИЯ!
Нам не нужно Правительство, блокирующее личную жизнь, интернет, нарушающее сохранность данных.
Все эти действия финансируются за счёт народа!