Жадность / Greedy (Джонатан Линн / Jonathan Lynn) [1994, США, Комедия, BDRip-AVC] MVO + AVO (А. Михалев) + Sub Rus, Eng + Original Eng

Reply to topic
DL-List and Torrent activity
Size:  4.14 GB   |    Registered:  4 years 4 months   |    Completed:  0 times

Seeder not seen: Never

 
   
 
 
Author Message

star21 ®

Gender: Female

Longevity: 4 years 4 months

Posts: 551945

Location: Екатеринбург

Post 02-Dec-2015 05:41

[Quote]

Жадность
Greedy
«Where there's a will...there's a relative»
- Страна: США
Жанр: Комедия
Год выпуска: 1994
Продолжительность: 01:52:21
Перевод: Профессиональный (многоголосый закадровый) Blu-Ray EUR
Перевод 2: Авторский (одноголосый закадровый) А. Михалев
Cубтитры: Rus, Eng
Оригинальная аудиодорожка: английский-Режиссер: Джонатан Линн / Jonathan Lynn
В ролях:
Майкл Дж. Фокс | Michael J. Fox
Кирк Дуглас | Kirk Douglas

Нэнси Трэвис, Оливия д’Або, Фил Хартмен, Эд Бегли мл., Джер Бернс, Коллин Кэмп, Боб Бэлабан, Джойс Хайзер и др.-ОписаниеАлчность нередко становятся причиной аморальных поступков, и это прекрасно осознает наблюдательный старик-миллионер Джо МакТиг. Детей и внуков у него нет, но близкие и дальние родственники, предвкушая кончину "дядюшки", ждут удобного момента и ублажают Джо в надежде на солидный куш...-Сэмпл

IMDb: 6.20 (9640)
Качество видео: BDRip-AVC
Формат видео: MKV
Видео: AVC 4240 Kbps 1056 x 572 (1.846) 23.976 fps
Аудио: AC-3 224 Kbps 2 channels, 48.0 KHz MVO Blu-Ray EUR
Аудио 2: AC-3 256 Kbps 2 channels, 48.0 KHz AVO А. Михалев
Аудио 3: AC-3 448 Kbps 6 channels, 48.0 KHz Eng
Формат субтитров: softsub (SRT)

MediaInfo | Log

Log

x264 [info]: frame I:1393 Avg QP:19.00 size: 99089
x264 [info]: frame P:31863 Avg QP:20.31 size: 40788
x264 [info]: frame B:128385 Avg QP:22.48 size: 17307
x264 [info]: consecutive B-frames: 1.4% 0.8% 4.4% 16.5% 20.1% 48.9% 4.8% 1.6% 0.7% 0.4% 0.2% 0.2% 0.2%
x264 [info]: mb I I16..4: 2.0% 87.1% 10.8%
x264 [info]: mb P I16..4: 0.3% 17.2% 1.0% P16..4: 27.8% 33.3% 15.6% 1.8% 0.2% skip: 2.8%
x264 [info]: mb B I16..4: 0.0% 3.2% 0.1% B16..8: 35.5% 20.9% 4.4% direct: 8.0% skip:27.8% L0:41.8% L1:41.6% BI:16.6%
x264 [info]: 8x8 transform intra:93.2% inter:57.1%
x264 [info]: direct mvs spatial:100.0% temporal:0.0%
x264 [info]: coded y,uvDC,uvAC intra: 98.0% 79.7% 48.6% inter: 36.9% 16.3% 1.1%
x264 [info]: i16 v,h,dc,p: 72% 10% 4% 14%
x264 [info]: i8 v,h,dc,ddl,ddr,vr,hd,vl,hu: 11% 9% 12% 10% 13% 12% 10% 12% 12%
x264 [info]: i4 v,h,dc,ddl,ddr,vr,hd,vl,hu: 12% 9% 4% 9% 15% 15% 13% 12% 12%
x264 [info]: i8c dc,h,v,p: 31% 30% 21% 18%
x264 [info]: Weighted P-Frames: Y:8.5% UV:2.8%
x264 [info]: ref P L0: 38.1% 11.8% 19.9% 6.9% 6.7% 4.3% 4.4% 2.1% 2.2% 1.6% 1.8% 0.2% 0.0%
x264 [info]: ref B L0: 73.8% 11.2% 5.0% 2.9% 2.1% 1.9% 1.4% 0.9% 0.5% 0.3%
x264 [info]: ref B L1: 94.1% 5.9%
x264 [info]: kb/s:4342.66
x264 [total]: encoded 161641 frames, 9.03 fps, 4342.66 kb/s, duration 4:58:25.61
Format : Matroska
Format version : Version 4 / Version 2
File size : 4.14 GiB
Duration : 1h 52mn
Overall bit rate : 5 273 Kbps
Encoded date : UTC 2015-10-04 21:20:54
Writing application : mkvmerge v6.7.0 ('Back to the Ground') 32bit built on Jan 8 2014 15:03:17
Writing library : libebml v1.3.0 + libmatroska v1.4.1
Video
ID : 1
Format : AVC
Format/Info : Advanced Video Codec
Format profile : High@L4.1
Format settings, CABAC : Yes
Format settings, ReFrames : 11 frames
Codec ID : V_MPEG4/ISO/AVC
Duration : 1h 52mn
Bit rate : 4 240 Kbps
Width : 1 056 pixels
Height : 572 pixels
Display aspect ratio : 1.85:1
Frame rate mode : Constant
Frame rate : 23.976 fps
Color space : YUV
Chroma subsampling : 4:2:0
Bit depth : 8 bits
Scan type : Progressive
Bits/(Pixel*Frame) : 0.293
Stream size : 3.33 GiB (80%)
Title : Greedy (1994) [rupeer.com]
Writing library : x264 core 148 r2579kMod 73ae2d1
Encoding settings : cabac=1 / ref=11 / deblock=1:-2:-1 / analyse=0x3:0x133 / me=umh / subme=11 / psy=1 / fade_compensate=0.00 / psy_rd=1.00:0.05 / mixed_ref=1 / me_range=32 / chroma_me=1 / trellis=2 / 8x8dct=1 / cqm=0 / deadzone=21,11 / fast_pskip=0 / chroma_qp_offset=-3 / threads=12 / lookahead_threads=3 / sliced_threads=0 / nr=0 / decimate=1 / interlaced=0 / bluray_compat=0 / constrained_intra=0 / fgo=0 / bframes=12 / b_pyramid=2 / b_adapt=2 / b_bias=0 / direct=3 / weightb=1 / open_gop=0 / weightp=2 / keyint=250 / keyint_min=23 / scenecut=40 / intra_refresh=0 / rc_lookahead=80 / rc=crf / mbtree=0 / crf=18.7000 / qcomp=0.60 / qpmin=0 / qpmax=69 / qpstep=4 / vbv_maxrate=50000 / vbv_bufsize=62500 / crf_max=0.0 / nal_hrd=none / filler=0 / ip_ratio=1.40 / pb_ratio=1.30 / aq=3:0.90
Language : English
Default : Yes
Forced : No
Audio #1
ID : 2
Format : AC-3
Format/Info : Audio Coding 3
Mode extension : CM (complete main)
Format settings, Endianness : Big
Codec ID : A_AC3
Duration : 1h 52mn
Bit rate mode : Constant
Bit rate : 224 Kbps
Channel(s) : 2 channels
Channel positions : Front: L R
Sampling rate : 48.0 KHz
Compression mode : Lossy
Stream size : 180 MiB (4%)
Title : MVO [Blu-Ray EUR]
Language : Russian
Default : Yes
Forced : No
Audio #2
ID : 3
Format : AC-3
Format/Info : Audio Coding 3
Mode extension : CM (complete main)
Format settings, Endianness : Big
Codec ID : A_AC3
Duration : 1h 52mn
Bit rate mode : Constant
Bit rate : 256 Kbps
Channel(s) : 2 channels
Channel positions : Front: L R
Sampling rate : 48.0 KHz
Compression mode : Lossy
Stream size : 206 MiB (5%)
Title : AVO [Mihalev]
Language : Russian
Default : No
Forced : No
Audio #3
ID : 4
Format : AC-3
Format/Info : Audio Coding 3
Mode extension : CM (complete main)
Format settings, Endianness : Big
Codec ID : A_AC3
Duration : 1h 52mn
Bit rate mode : Constant
Bit rate : 448 Kbps
Channel(s) : 6 channels
Channel positions : Front: L C R, Side: L R, LFE
Sampling rate : 48.0 KHz
Compression mode : Lossy
Stream size : 360 MiB (8%)
Title : Original
Language : English
Default : No
Forced : No
Text #1
ID : 5
Format : UTF-8
Codec ID : S_TEXT/UTF8
Codec ID/Info : UTF-8 Plain Text
Title : Full
Language : Russian
Default : No
Forced : No
Text #2
ID : 6
Format : UTF-8
Codec ID : S_TEXT/UTF8
Codec ID/Info : UTF-8 Plain Text
Title : Full
Language : English
Default : No
Forced : No
Menu
00:00:00.000 : en:00:00:00.000
00:03:01.598 : en:00:03:01.598
00:08:06.528 : en:00:08:06.528
00:13:30.309 : en:00:13:30.309
00:15:35.476 : en:00:15:35.476
00:22:25.344 : en:00:22:25.344
00:34:03.333 : en:00:34:03.333
00:38:38.024 : en:00:38:38.024
00:47:57.374 : en:00:47:57.374
00:50:43.499 : en:00:50:43.499
01:02:23.365 : en:01:02:23.365
01:05:39.978 : en:01:05:39.978
01:14:27.088 : en:01:14:27.088
01:20:32.369 : en:01:20:32.369
01:26:36.817 : en:01:26:36.817
01:35:36.064 : en:01:35:36.064
01:42:23.137 : en:01:42:23.137
01:48:41.473 : en:01:48:41.473

Скриншоты | Rip vs Source




Rip vs Source

Rip

Source

To download the content you need:
1. Download and install torrent client [for Windows] or for mobile system
2. Click on [Download]
Attention.
If the test YOU are NOT a ROBOT - does not work, then You are using an outdated browser.
Install the current browser and click on [Download]

Do not work with Yandex browser. Uploading files to them is erroneous.
Security: torrent client is allowed by Kaspersky.

[en.asmlocator.ru].t4743.torrent 
Torrent: Registered [ 2015-12-02 05:40 ] · 264D45C84CD9861E4B700A64EA5AC5F83EB698F2

Download .torrent

Download

21 KB

Status: checked
Completed: 0 times
Size: 4.14 GB
terms.php
[Profile] [PM]
Display posts:    
Reply to topic

Current time is: 04-Apr 13:51

All times are UTC ± 0



You cannot post new topics in this forum
You cannot reply to topics in this forum
You cannot edit your posts in this forum
You cannot delete your posts in this forum
You cannot vote in polls in this forum
You cannot attach files in this forum
You can download files in this forum
Верим фактам, а не вранью Путина! Факт, что Правительство ведёт Россию к истреблению.
Так как численность населения падает, даже не смотря на приток эмигрантов!
Русская нация вымирает и вырождается, смешиваясь с эмигрантами!
Факт, что военных и граждан предприятий заставляют голосовать за партию Единая Россия и Путина
ПОД СТРАХОМ УВОЛЬНЕНИЯ!
Нам не нужно Правительство, блокирующее личную жизнь, интернет, нарушающее сохранность данных.
Все эти действия финансируются за счёт народа!