С меня хватит! / Падение / Falling Down (Джоэл Шумахер / Joel Schumacher) [1992, США, Франция, Великобритания, Психологическая драма, детектив, BDRip] DVO (А. Клюквин, Л. Германова) + AVO (Ю. Живов) + Sub Rus, Eng + Original Eng

Reply to topic
DL-List and Torrent activity
Size:  2.13 GB   |    Registered:  4 years 4 months   |    Completed:  0 times

Seeder not seen: 1 year 1 month

 
   
 
 
Author Message

star21 ®

Gender: Female

Longevity: 4 years 5 months

Posts: 551945

Location: Екатеринбург

Post 02-Dec-2015 05:41

[Quote]

С меня хватит! / Падение / Falling Down
Страна: США, Франция, Великобритания
Жанр: Психологическая драма, детектив
Год выпуска: 1992
Продолжительность: 01:52:36
Перевод #1: Профессиональный (двухголосый закадровый) Александр Клюквин, Любовь Германова
Перевод #2: Авторский (одноголосый закадровый) Юрий Живов
Cубтитры: русские, английские (ENG.SDH, ENG, RUS.GEMINI, RUS, RUS.TWISTER, RUS.UNCLE.KILLER - All SubRip format) [, HQClub] отдельно вложенные
Оригинальная аудиодорожка: английский
Режиссер: Джоэл Шумахер / Joel Schumacher
В ролях: Майкл Дуглас, Роберт Дювалл, Барбара Херши, Рэйчел Тикотин, Тьюзди Уэлд, Фредерик Форрест, Лоис Смит, Джои Хоуп Сингер, Эбби Роу Смит, Майкл Пол Чан, и др.
Описание: Неудачи стали переполнять жизнь Уильяма через край, особенно этим жарким летом... На работе его отправили в бессрочный отпуск... Суд постановил, что ему запрещено встречаться с дочерью... Обозлившись на весь мир, Уильям решается отомстить всем и сразу... Сокрушая всех и всё на своём пути, сквозь город раскалённый от жары, он пытается изо всех последних сил пробиваться на день рождения к своёй дочери... Люди воспринимают его как cумасшедшего, и только опытный детектив Прендергаст он только, обладает способностями выяснить настоящие причины неадекватного поведения Уильяма…
Качество видео: BDRip []
Формат видео: AVI
Vidео: XviD 1.2.1 MPEG-4, 720x304, 2.35:1, 23.976 fps, ~1915 kbps avg, 0.365 bit/pixel []
Аudiо #1: Russian AC-3 Dolby Digital, CBR 192 kbps 2 ch, Front: L R, 48.0 KHz А. Клюквин, Л. Германова [ + ]
Аudiо #2: Russian AC-3 Dolby Digital, CBR 192 kbps 2 ch, Front: L R, 48.0 KHz Ю. Живов [DaniLch + HQClub]
Аudiо #3: English AC-3 Dolby Digital, CBR 384 kbps 6 ch, Front: L C R, Side: L R, LFE, 48.0 KHz Original []

MediaInfo

ОбщееПолное имя                               : V:\Falling_Down_1992_BDRip_[rupeer.com]\Falling_Down_1992_BDRip.aviФормат                                   : AVIФормат/Информация                        : Audio Video InterleaveПрофиль формата                          : OpenDMLРазмер файла                             : 2,13 ГбайтПродолжительность                        : 1 ч. 52 м.Общий поток                              : 2707 Кбит/секПрограмма кодирования                    : VirtualDubModRus 1.5.10.2 (build 2542/release)
ВидеоИдентификатор : 0Формат : MPEG-4 VisualПрофиль формата : Advanced Simple@L5Параметр BVOP формата : 1Параметр QPel формата : НетПараметр GMC формата : Без точки переходаПараметр матрицы формата : ВыборочнаяИдентификатор кодека : DX50Идентификатор кодека/Подсказка : DivX 5Продолжительность : 1 ч. 52 м.Битрейт : 1915 Кбит/секШирина : 720 пикселейВысота : 304 пикселяСоотношение сторон : 2,35:1Частота кадров : 23,976 кадра/секЦветовое пространство : YUVСубдискретизация насыщенности : 4:2:0Битовая глубина : 8 битТип развёртки : ПрогрессивнаяМетод сжатия : С потерямиБит/(Пиксели*Кадры) : 0.365Размер потока : 1,51 Гбайт (71%)Библиотека кодирования : XviD 1.2.1 (UTC 2008-12-04)
Аудио #1Идентификатор : 1Формат : AC-3Формат/Информация : Audio Coding 3Расширение режима : CM (complete main)Параметр Endianness формата : BigИдентификатор кодека : 2000Продолжительность : 1 ч. 52 м.Вид битрейта : ПостоянныйБитрейт : 192 Кбит/секКаналы : 2 каналаРасположение каналов : Front: L RЧастота : 48,0 КГцБитовая глубина : 16 битМетод сжатия : С потерямиЗадержка видео : 115 мс.Размер потока : 154 Мбайт (7%)Выравнивание : Разделение по промежуткамПродолжительность промежутка : 42 мс. (1,00 видеокадр)Время предзагрузки промежутка : 500 мс.
Аудио #2Идентификатор : 2Формат : AC-3Формат/Информация : Audio Coding 3Расширение режима : CM (complete main)Параметр Endianness формата : BigИдентификатор кодека : 2000Продолжительность : 1 ч. 52 м.Вид битрейта : ПостоянныйБитрейт : 192 Кбит/секКаналы : 2 каналаРасположение каналов : Front: L RЧастота : 48,0 КГцБитовая глубина : 16 битМетод сжатия : С потерямиЗадержка видео : 105 мс.Размер потока : 155 Мбайт (7%)Выравнивание : Разделение по промежуткамПродолжительность промежутка : 42 мс. (1,00 видеокадр)Время предзагрузки промежутка : 500 мс.
Аудио #3Идентификатор : 3Формат : AC-3Формат/Информация : Audio Coding 3Расширение режима : CM (complete main)Параметр Endianness формата : BigИдентификатор кодека : 2000Продолжительность : 1 ч. 52 м.Вид битрейта : ПостоянныйБитрейт : 384 Кбит/секКаналы : 6 каналовРасположение каналов : Front: L C R, Side: L R, LFEЧастота : 48,0 КГцБитовая глубина : 16 битМетод сжатия : С потерямиЗадержка видео : 28 мс.Размер потока : 309 Мбайт (14%)Выравнивание : Разделение по промежуткамПродолжительность промежутка : 42 мс. (1,00 видеокадр)Время предзагрузки промежутка : 500 мс.
ОбщееПолное имя : V:\Falling_Down_1992_BDRip_[rupeer.com]\Falling_Down_1992_BDRip.ENG.SDH.srtФормат : SubRipРазмер файла : 105 Кбайт
ТекстФормат : SubRipМетод сжатия : Без потерь
ОбщееПолное имя : V:\Falling_Down_1992_BDRip_[rupeer.com]\Falling_Down_1992_BDRip.ENG.srtФормат : SubRipРазмер файла : 99,2 Кбайт
ТекстФормат : SubRipМетод сжатия : Без потерь
ОбщееПолное имя : V:\Falling_Down_1992_BDRip_[rupeer.com]\Falling_Down_1992_BDRip.RUS.GEMINI.srtФормат : SubRipРазмер файла : 83,8 Кбайт
ТекстФормат : SubRipМетод сжатия : Без потерь
ОбщееПолное имя : V:\Falling_Down_1992_BDRip_[rupeer.com]\Falling_Down_1992_BDRip.RUS.srtФормат : SubRipРазмер файла : 82,9 Кбайт
ТекстФормат : SubRipМетод сжатия : Без потерь
ОбщееПолное имя : V:\Falling_Down_1992_BDRip_[rupeer.com]\Falling_Down_1992_BDRip.RUS.TWISTER.srtФормат : SubRipРазмер файла : 83,6 Кбайт
ТекстФормат : SubRipМетод сжатия : Без потерь
ОбщееПолное имя : V:\Falling_Down_1992_BDRip_[rupeer.com]\Falling_Down_1992_BDRip.RUS.UNCLE.KILLER.srtФормат : SubRipРазмер файла : 99,9 Кбайт
ТекстФормат : SubRipМетод сжатия : Без потерь

Скриншот c названием фильма

Скриншоты

Время раздачи - по возможности.

To download the content you need:
1. Download and install torrent client [for Windows] or for mobile system
2. Click on [Download]
Attention.
If the test YOU are NOT a ROBOT - does not work, then You are using an outdated browser.
Install the current browser and click on [Download]

Do not work with Yandex browser. Uploading files to them is erroneous.
Security: torrent client is allowed by Kaspersky.

[en.asmlocator.ru].t4741.torrent 
Torrent: Registered [ 2015-12-02 05:40 ] · 41DB0C3B2093BCF34DD80C94E129DE29312A44CA

Download .torrent

Download

12 KB

Status: checked
Completed: 0 times
Size: 2.13 GB
terms.php
[Profile] [PM]
Display posts:    
Reply to topic

Current time is: 07-Apr 19:41

All times are UTC ± 0



You cannot post new topics in this forum
You cannot reply to topics in this forum
You cannot edit your posts in this forum
You cannot delete your posts in this forum
You cannot vote in polls in this forum
You cannot attach files in this forum
You can download files in this forum
Верим фактам, а не вранью Путина! Факт, что Правительство ведёт Россию к истреблению.
Так как численность населения падает, даже не смотря на приток эмигрантов!
Русская нация вымирает и вырождается, смешиваясь с эмигрантами!
Факт, что военных и граждан предприятий заставляют голосовать за партию Единая Россия и Путина
ПОД СТРАХОМ УВОЛЬНЕНИЯ!
Нам не нужно Правительство, блокирующее личную жизнь, интернет, нарушающее сохранность данных.
Все эти действия финансируются за счёт народа!