Так ему и надо / Let Him Have It (Питер Медак / Peter Medak) [1991, Великобритания, Франция, драма, криминал, DVDRip] MVO + AVO (Сербин)+ original Eng

Reply to topic
DL-List and Torrent activity
Size:  1.97 GB   |    Registered:  4 years 4 months   |    Completed:  0 times

Seeder not seen: Never

 
   
 
 
Author Message

star21 ®

Gender: Female

Longevity: 4 years 4 months

Posts: 551945

Location: Екатеринбург

Post 02-Dec-2015 05:41

[Quote]

Так ему и надо / Let Him Have It
Страна: Великобритания, Франция
Жанр: драма, криминал
Год выпуска: 1991
Продолжительность: 01:55:13
Перевод: Профессиональный (многоголосый закадровый)
Перевод: Авторский (одноголосый закадровый) - Юрий Сербин
Cубтитры: нет
Оригинальная дорожка: английская

Режиссер: Питер Медак / Peter Medak
В ролях: Кристофер Экклстон, Пол Рейнолдс, Эйлин Эткинс, Том Белл, Клэр Холмэн, Джек Дим, Берт Тайлер Мур, Питер Эйри, Джеймс Вильерс, Рональд Фрейзер, Клайв Ревилл
Описание: Жесткая криминальная драма. Мальчишки послевоенной Англии страшно хотят быть гангстерами. Один из них, Крэйг, тяжело переживая разлуку со старшим братом, матерым преступником, осужденным на 20 лет, подбивает Дерека, юношу умственно неполноценного, участвовать в преступлениях. Во время одного из таких предприятий Крэйг убил полицейского, что потрясло Дерека, толком не отдававшего себе отчет в том, что происходило. Дерек даже пытался остановить Крэйга, но тот готов был убить и его. Обоих мальчишек (Крэйг спал с пистолетом и игрушками) арестовали и судили. Убийцу Крэйга посадили в тюрьму, так как ему не было 16 лет, а полоумного Дерека (его даже в армию не взяли) приговорили к повешению. Фильм, поставленный по реальным событиям, отличается психологической глубиной и великолепной игрой лучших британских актеров. (М. Иванов)
Качество видео:
Формат видео: AVI
Видео: 704x384 (1.83:1), 23.976 fps, XviD build 73 ~1608 kbps avg, 0.25 bit/pixel
Аудио: 48 kHz, AC3 Dolby Digital, 2/0 (L,R) ch, ~192 kbps - многоголосый
отдельными файлами:
Аудио: 48 kHz, AC3 Dolby Digital, 2/0 (L,R) ch, ~192 kbps - авторский
Аудио: 48 kHz, AC3 Dolby Digital, 3/2 (L,C,R,l,r) + LFE ch, ~448 kbps - оригинал

MediaInfo

Общее
Полное имя : H:\Торрент отдачи 4\Let.Him.Have.It.1991.dvdrip_[1.46]_[teko]\Let.Him.Have.It.1991.dvdrip_[1.46].avi
Формат : AVI
Формат/Информация : Audio Video Interleave
Размер файла : 1,46 Гбайт
Продолжительность : 1 ч. 55 м.
Общий поток : 1810 Кбит/сек
Программа кодирования : VirtualDubMod 1.5.10.3 | www.virtualdub-fr.org || (build 2550/release)
Библиотека кодирования : VirtualDubMod build 2550/release
Видео
Идентификатор : 0
Формат : MPEG-4 Visual
Профиль формата : Advanced Simple@L5
Параметр BVOP формата : 1
Параметр QPel формата : Нет
Параметр GMC формата : Без точки перехода
Параметр матрицы формата : Выборочная
Идентификатор кодека : XVID
Идентификатор кодека/Подсказка : XviD
Продолжительность : 1 ч. 55 м.
Битрейт : 1609 Кбит/сек
Ширина : 704 пикселя
Высота : 384 пикселя
Соотношение сторон : 1,85:1
Частота кадров : 23,976 кадра/сек
Цветовое пространство : YUV
Субдискретизация насыщенности : 4:2:0
Битовая глубина : 8 бит
Тип развёртки : Прогрессивная
Метод сжатия : С потерями
Бит/(Пиксели*Кадры) : 0.248
Размер потока : 1,29 Гбайт (89%)
Библиотека кодирования : XviD 73
Аудио
Идентификатор : 1
Формат : AC-3
Формат/Информация : Audio Coding 3
Расширение режима : CM (complete main)
Параметр Endianness формата : Big
Идентификатор кодека : 2000
Продолжительность : 1 ч. 55 м.
Вид битрейта : Постоянный
Битрейт : 192 Кбит/сек
Каналы : 2 канала
Расположение каналов : Front: L R
Частота : 48,0 КГц
Битовая глубина : 16 бит
Метод сжатия : С потерями
Размер потока : 158 Мбайт (11%)
Выравнивание : Разделение по промежуткам
Продолжительность промежутка : 42 мс. (1,00 видеокадр)
Время предзагрузки промежутка : 500 мс.
Релиз группы:
-
-

To download the content you need:
1. Download and install torrent client [for Windows] or for mobile system
2. Click on [Download]
Attention.
If the test YOU are NOT a ROBOT - does not work, then You are using an outdated browser.
Install the current browser and click on [Download]

Do not work with Yandex browser. Uploading files to them is erroneous.
Security: torrent client is allowed by Kaspersky.

[en.asmlocator.ru].t4740.torrent 
Torrent: Registered [ 2015-12-02 05:40 ] · 6A2C65F51451F37D99FD08DB20B53451B02173B1

Download .torrent

Download

20 KB

Status: checked
Completed: 0 times
Size: 1.97 GB
terms.php
[Profile] [PM]
Display posts:    
Reply to topic

Current time is: 03-Apr 11:15

All times are UTC ± 0



You cannot post new topics in this forum
You cannot reply to topics in this forum
You cannot edit your posts in this forum
You cannot delete your posts in this forum
You cannot vote in polls in this forum
You cannot attach files in this forum
You can download files in this forum
Верим фактам, а не вранью Путина! Факт, что Правительство ведёт Россию к истреблению.
Так как численность населения падает, даже не смотря на приток эмигрантов!
Русская нация вымирает и вырождается, смешиваясь с эмигрантами!
Факт, что военных и граждан предприятий заставляют голосовать за партию Единая Россия и Путина
ПОД СТРАХОМ УВОЛЬНЕНИЯ!
Нам не нужно Правительство, блокирующее личную жизнь, интернет, нарушающее сохранность данных.
Все эти действия финансируются за счёт народа!