Консьерж / For Love or Money (Барри Зонненфельд / Barry Sonnenfeld) [1993, США, драма, мелодрама, комедия, BDRip] Dub + 2хMVO (ОРТ, СТС) + 2хAVO (Дохалов, Королёв) + Sub Rus, Eng + Original Eng

Reply to topic
DL-List and Torrent activity
Size:  2.15 GB   |    Registered:  4 years 3 months   |    Completed:  0 times

Seeder not seen: Never

 
   
 
 
Author Message

star21 ®

Gender: Female

Longevity: 4 years 4 months

Posts: 551945

Location: Екатеринбург

Post 02-Dec-2015 05:41

[Quote]

Консьерж / For Love or Money
Страна: США
Жанр: драма, мелодрама, комедия
Год выпуска: 1993
Продолжительность: 01:35:10
Перевод: Профессиональный (дублированный)
Перевод: Профессиональный (многоголосый закадровый) - ОРТ
Перевод: Профессиональный (многоголосый закадровый) - СТС
Перевод: Авторский (одноголосый закадровый) - Вартан Дохалов
Перевод: Авторский (одноголосый закадровый) - Владимир Королёв
Cубтитры: русские, английские
Оригинальная аудиодорожка: английский

Режиссер: Барри Зонненфельд / Barry Sonnenfeld
В ролях: Майкл Дж. Фокс, Габриель Анвар, Энтони Хиггинс, Боб Бэлабан, Майкл Такер, Айзек Мизрахи, Патрик Брин, Удо Кир, Саймон Джонс, Дайян Брилл
Описание: У Дагласа, консьержа роскошной гостиницы, две мечты — заработать на собственный отель и жениться на красотке Энди. Щедрые чаевые от богатых клиентов помогут осуществить первую. А со второй проблема — как жениться на девушке, у которой уже есть жених, к тому же красивый и богатый?
Качество видео:
Формат видео: AVI
Видео: 704x384 (1.83:1), 23.976 fps, XviD build 73 ~1607 kbps avg, 0.25 bit/pixel
Аудио: 48 kHz, AC3 Dolby Digital, 2/0 (L,R) ch, ~192 kbps - Дубляж
Аудио: 48 kHz, AC3 Dolby Digital, 2/0 (L,R) ch, ~192 kbps - ОРТ
Аудио: 48 kHz, AC3 Dolby Digital, 2/0 (L,R) ch, ~192 kbps - СТС
отдельными файлами:
Аудио: 48 kHz, AC3 Dolby Digital, 2/0 (L,R) ch, ~192 kbps - Дохалов
Аудио: 48 kHz, AC3 Dolby Digital, 3/2 (L,C,R,l,r) + LFE ch, ~384 kbps - Королёв
Аудио: 48 kHz, AC3 Dolby Digital, 3/2 (L,C,R,l,r) + LFE ch, ~448 kbps - оригинал

MediaInfo

Общее
Полное имя : H:\For.Love.or.Money.1993.bdrip_[1.46]_[teko]\For.Love.or.Money.1993.bdrip_[1.46].avi
Формат : AVI
Формат/Информация : Audio Video Interleave
Размер файла : 1,46 Гбайт
Продолжительность : 1 ч. 35 м.
Общий поток : 2203 Кбит/сек
Программа кодирования : VirtualDubMod 1.5.10.3 | www.virtualdub-fr.org || (build 2550/release)
Библиотека кодирования : VirtualDubMod build 2550/release
Видео
Идентификатор : 0
Формат : MPEG-4 Visual
Профиль формата : AdvaЛnced Simple@L5
Параметр BVOP формата : 1
Параметр QPel формата : Нет
Параметр GMC формата : Без точки перехода
Параметр матрицы формата : Выборочная
Идентификатор кодека : XVID
Идентификатор кодека/Подсказка : XviD
Продолжительность : 1 ч. 35 м.
Битрейт : 1608 Кбит/сек
Ширина : 704 пикселя
Высота : 384 пикселя
Соотношение сторон : 1,85:1
Частота кадров : 23,976 кадра/сек
Цветовое пространство : YUV
Субдискретизация насыщенности : 4:2:0
Битовая глубина : 8 бит
Тип развёртки : Прогрессивная
Метод сжатия : С потерями
Бит/(Пиксели*Кадры) : 0.248
Размер потока : 1,07 Гбайт (73%)
Библиотека кодирования : XviD 73
Аудио #1
Идентификатор : 1
Формат : AC-3
Формат/Информация : Audio Coding 3
Расширение режима : CM (complete main)
Параметр Endianness формата : Big
Идентификатор кодека : 2000
Продолжительность : 1 ч. 35 м.
Вид битрейта : Постоянный
Битрейт : 192 Кбит/сек
Каналы : 2 канала
Расположение каналов : Front: L R
Частота : 48,0 КГц
Битовая глубина : 16 бит
Метод сжатия : С потерями
Размер потока : 131 Мбайт (9%)
Выравнивание : Разделение по промежуткам
Продолжительность промежутка : 42 мс. (1,00 видеокадр)
Время предзагрузки промежутка : 500 мс.
Аудио #2
Идентификатор : 2
Формат : AC-3
Формат/Информация : Audio Coding 3
Расширение режима : CM (complete main)
Параметр Endianness формата : Big
Идентификатор кодека : 2000
Продолжительность : 1 ч. 35 м.
Вид битрейта : Постоянный
Битрейт : 192 Кбит/сек
Каналы : 2 канала
Расположение каналов : Front: L R
Частота : 48,0 КГц
Битовая глубина : 16 бит
Метод сжатия : С потерями
Размер потока : 131 Мбайт (9%)
Выравнивание : Разделение по промежуткам
Продолжительность промежутка : 42 мс. (1,00 видеокадр)
Время предзагрузки промежутка : 500 мс.
Аудио #3
Идентификатор : 3
Формат : AC-3
Формат/Информация : Audio Coding 3
Расширение режима : CM (complete main)
Параметр Endianness формата : Big
Идентификатор кодека : 2000
Продолжительность : 1 ч. 34 м.
Вид битрейта : Постоянный
Битрейт : 192 Кбит/сек
Каналы : 2 канала
Расположение каналов : Front: L R
Частота : 48,0 КГц
Битовая глубина : 16 бит
Метод сжатия : С потерями
Размер потока : 130 Мбайт (9%)
Выравнивание : Разделение по промежуткам
Продолжительность промежутка : 42 мс. (1,00 видеокадр)
Время предзагрузки промежутка : 500 мс.
Релиз группы:
-
-

To download the content you need:
1. Download and install torrent client [for Windows] or for mobile system
2. Click on [Download]
Attention.
If the test YOU are NOT a ROBOT - does not work, then You are using an outdated browser.
Install the current browser and click on [Download]

Do not work with Yandex browser. Uploading files to them is erroneous.
Security: torrent client is allowed by Kaspersky.

[en.asmlocator.ru].t4739.torrent 
Torrent: Registered [ 2015-12-02 05:40 ] · 816C9DB49F6CD1412E667E6C139D6AD2C2554C3A

Download .torrent

Download

12 KB

Status: checked
Completed: 0 times
Size: 2.15 GB
terms.php
[Profile] [PM]
Display posts:    
Reply to topic

Current time is: 31-Mar 19:47

All times are UTC ± 0



You cannot post new topics in this forum
You cannot reply to topics in this forum
You cannot edit your posts in this forum
You cannot delete your posts in this forum
You cannot vote in polls in this forum
You cannot attach files in this forum
You can download files in this forum
Верим фактам, а не вранью Путина! Факт, что Правительство ведёт Россию к истреблению.
Так как численность населения падает, даже не смотря на приток эмигрантов!
Русская нация вымирает и вырождается, смешиваясь с эмигрантами!
Факт, что военных и граждан предприятий заставляют голосовать за партию Единая Россия и Путина
ПОД СТРАХОМ УВОЛЬНЕНИЯ!
Нам не нужно Правительство, блокирующее личную жизнь, интернет, нарушающее сохранность данных.
Все эти действия финансируются за счёт народа!