Взлом / Хакеры 2 / Takedown / Track Down (Джо Чаппель / Joe Chappelle) [2000, США, триллер, драма, криминал, WEB-DLRip] DVO (НТВ+)

Reply to topic
DL-List and Torrent activity
Size:  1.4 GB   |    Registered:  4 years 4 months   |    Completed:  0 times

Seeder not seen: Never

 
   
 
 
Author Message

star21 ®

Gender: Female

Longevity: 4 years 5 months

Posts: 551945

Location: Екатеринбург

Post 02-Dec-2015 05:41

[Quote]

Взлом / Хакеры 2 / Takedown / Track Down
Год выпуска: 2000
Страна: США
Жанр: триллер, драма, криминал
Продолжительность: 01:35:58
Перевод: Профессиональный (двухголосый закадровый) - НТВ+
Cубтитры: нет
Режиссер: Джо Чаппель / Joe Chappelle
В ролях: Скит Ульрих (Kevin Mitnick), Расселл Вонг (Tsutomu Shimomura), Анджела Фезерстоун (Julia), Донал Лог (Alex Lowe), Кристофер МакДональд (Mitch Gibson), Мастер Пи (Brad), Том Беренджер (McCoy Rollins), Джереми Систо (Lance «Icebreaker» Petersen), Аманда Пит (Karen), Итан Сапли (Dan Bradley)-Мировая премьера: 15 марта 2000-Описание: Гениальный хакер Митник уже два года скрывается от лучших оперативников ФБР, без труда проникая в самые защищенные базы данных. Но теперь он обрел более опасного и хитрого врага, спеца по электронной безопасности Шимомуру, у которого ему удалось похитить уникальный вирус, способный уничтожить любой компьютер. Митник по-прежнему неуловим для правительственных агентов, но сумеет ли он уйти от опытного Шимомуры, который объявил ему настоящую войну?-Исходник видео: Takedown 2000 720p WEB-DL DD5 1 H264-FGT-Огромная благодарность:
- собственная запись перевода НТВ+ с телеканала ТВ3 в 2000-х годах через видеомагнитофон и оцифровка с видеокассеты.
- синхронизация перевода.-На русский язык фильм озвучен телекомпанией НТВ+.
Текст читают Александр Рахленко и Ольга Гаспарова.-Рейтинг

MPAA: R - Лицам до 17 лет обязательно присутствие взрослого.-Качество видео: WEB-DLRip
Формат видео: AVI -> //Сэмпл//
Видео: XviD, 720x400 (16:9), 23.976 fps, 1881 kbps avg
Аудио:
1 - 48 khz, AC3 Dolby Digital, 2/0 (L,R) ch, ~192 kbps [НТВ+ / ТВ3] VHSRip

MediaInfo

General
Complete name : D:\Торрент Файлы\Будущие Релизы на Трекере\1.35 - 1.46 и более гб\Взлом (НТВ+).avi
Format : AVI
Format/Info : Audio Video Interleave
File size : 1.40 GiB
Duration : 1h 35mn
Overall bit rate : 2 082 Kbps
Writing application : VirtualDubMod 1.5.10.3 | www.virtualdub-fr.org || (build 2550/release)
Writing library : VirtualDubMod build 2550/release
Video
ID : 0
Format : MPEG-4 Visual
Format profile : Advanced Simple@L5
Format settings, BVOP : 1
Format settings, QPel : No
Format settings, GMC : No warppoints
Format settings, Matrix : Custom
Codec ID : XVID
Codec ID/Hint : XviD
Duration : 1h 35mn
Bit rate : 1 881 Kbps
Width : 720 pixels
Height : 400 pixels
Display aspect ratio : 16:9
Frame rate : 23.976 fps
Color space : YUV
Chroma subsampling : 4:2:0
Bit depth : 8 bits
Scan type : Progressive
Compression mode : Lossy
Bits/(Pixel*Frame) : 0.272
Stream size : 1.26 GiB (90%)
Writing library : XviD 1.2.1 (UTC 2008-12-04)
Audio
ID : 1
Format : AC-3
Format/Info : Audio Coding 3
Mode extension : CM (complete main)
Format settings, Endianness : Big
Codec ID : 2000
Duration : 1h 35mn
Bit rate mode : Constant
Bit rate : 192 Kbps
Channel(s) : 2 channels
Channel positions : Front: L R
Sampling rate : 48.0 KHz
Compression mode : Lossy
Stream size : 132 MiB (9%)
Alignment : Split accross interleaves
Interleave, duration : 42 ms (1.00 video frame)
Interleave, preload duratio : 500 ms

Скриншот c названием фильма

Скриншоты

To download the content you need:
1. Download and install torrent client [for Windows] or for mobile system
2. Click on [Download]
Attention.
If the test YOU are NOT a ROBOT - does not work, then You are using an outdated browser.
Install the current browser and click on [Download]

Do not work with Yandex browser. Uploading files to them is erroneous.
Security: torrent client is allowed by Kaspersky.

[en.asmlocator.ru].t4738.torrent 
Torrent: Registered [ 2015-12-02 05:40 ] · CFA18113737F4C1B06A853D5CED6A711ACD7A306

Download .torrent

Download

15 KB

Status: checked
Completed: 0 times
Size: 1.4 GB
terms.php
[Profile] [PM]
Display posts:    
Reply to topic

Current time is: 10-Apr 10:06

All times are UTC ± 0



You cannot post new topics in this forum
You cannot reply to topics in this forum
You cannot edit your posts in this forum
You cannot delete your posts in this forum
You cannot vote in polls in this forum
You cannot attach files in this forum
You can download files in this forum
Верим фактам, а не вранью Путина! Факт, что Правительство ведёт Россию к истреблению.
Так как численность населения падает, даже не смотря на приток эмигрантов!
Русская нация вымирает и вырождается, смешиваясь с эмигрантами!
Факт, что военных и граждан предприятий заставляют голосовать за партию Единая Россия и Путина
ПОД СТРАХОМ УВОЛЬНЕНИЯ!
Нам не нужно Правительство, блокирующее личную жизнь, интернет, нарушающее сохранность данных.
Все эти действия финансируются за счёт народа!