Прибытие / The Arrival (Дэвид Шмёллер / David Schmoeller) [1991, США, Фантастика, VHSRip] VO + Original Eng

Reply to topic
DL-List and Torrent activity
Size:  819 MB   |    Registered:  4 years 7 months   |    Completed:  0 times

Seeder not seen: 8 months 22 days

 
   
 
 
Author Message

star21 ®

Gender: Female

Longevity: 4 years 8 months

Posts: 551945

Location: Екатеринбург

Post 02-Dec-2015 05:41

[Quote]

Прибытие / The Arrival
Страна: США
Жанр: Фантастика
Год выпуска: 1991
Продолжительность: 01:43:15
Перевод: Одноголосый закадровый
Cубтитры: нет
Оригинальная аудиодорожка: английский
Режиссер: Дэвид Шмёллер/David Schmoeller
В ролях: Джон Сэксон.Джозеф Калп.Робин Фрейтс.Роберт Сэмпсон.Джофф Хансен.Данна Гарэн.Дэнни Фендли.Эми Ротшилд.Ким Доусон.Эми Леммон.
Описание: Из фильма мы знаем, что когда «нечто» прилетает из космоса, то можно ожидать чего угодно. Так и здесь. После контакта с этим «нечто» пожилой человек умирает, а потом воскресает в морге, после чего с ним начинают происходить ужасные вещи. Он видит страшные сны или галлюцинации, а в окрестностях находят обескровленные трупы. У растений и животных наблюдается мутация. Но самое удивительное, что он молодеет, убивая и убивает, молодея. В него вселилось существо с другой планеты, и за ним охотится ФБР, но возможно ли убить это «нечто»?
Сэмпл: https://www.sendspace.com/file/fq0mag
Качество видео: VHSRip
Формат видео: AVI
Видео: 640x480 (1.33:1), 30 fps, XviD MPEG-4 ~770 kbps avg, 0.08 bit/pixel
Аудио 1: Русский:48 kHz, AC3 Dolby Digital, 2/0 (L,R) ch, ~192.00 kbps avg
Аудио 2: Английский: 48 kHz, MPEG Layer 3, 2 ch, ~128.00 kbps avg (Оригинал)

MediaInfo

General
Complete name : E:\The Arrival.1991.VHSRIP.XViD-R1shpil.avi
Format : AVI
Format/Info : Audio Video Interleave
File size : 819 MiB
Duration : 1h 43mn
Overall bit rate : 1 109 Kbps
Writing application : VirtualDubMod 1.5.10.2 (build 2540/release)
Writing library : VirtualDubMod build 2540/release
Video
ID : 0
Format : MPEG-4 Visual
Format profile : Advanced Simple@L5
Format settings, BVOP : 2
Format settings, QPel : No
Format settings, GMC : No warppoints
Format settings, Matrix : Default (H.263)
Muxing mode : Packed bitstream
Codec ID : XVID
Codec ID/Hint : XviD
Duration : 1h 43mn
Bit rate : 771 Kbps
Width : 640 pixels
Height : 480 pixels
Display aspect ratio : 4:3
Frame rate : 30.000 fps
Original frame rate : 25.000 fps
Color space : YUV
Chroma subsampling : 4:2:0
Bit depth : 8 bits
Scan type : Progressive
Compression mode : Lossy
Bits/(Pixel*Frame) : 0.084
Stream size : 570 MiB (70%)
Writing library : XviD 1.2.1 (UTC 2008-12-04)
Audio #1
ID : 1
Format : AC-3
Format/Info : Audio Coding 3
Mode extension : CM (complete main)
Format settings, Endianness : Big
Codec ID : 2000
Duration : 1h 43mn
Bit rate mode : Constant
Bit rate : 192 Kbps
Channel(s) : 2 channels
Channel positions : Front: L R
Sampling rate : 48.0 KHz
Bit depth : 16 bits
Compression mode : Lossy
Stream size : 142 MiB (17%)
Alignment : Split accross interleaves
Interleave, duration : 33 ms (1.00 video frame)
Interleave, preload duratio : 500 ms
Audio #2
ID : 2
Format : MPEG Audio
Format version : Version 1
Format profile : Layer 3
Mode : Joint stereo
Mode extension : MS Stereo
Codec ID : 55
Codec ID/Hint : MP3
Duration : 1h 43mn
Bit rate mode : Constant
Bit rate : 128 Kbps
Channel(s) : 2 channels
Sampling rate : 48.0 KHz
Compression mode : Lossy
Stream size : 94.5 MiB (12%)
Alignment : Split accross interleaves
Interleave, duration : 33 ms (1.00 video frame)
Interleave, preload duratio : 500 ms

Скриншот c названием фильма

Скриншоты






To download the content you need:
1. Download and install torrent client [for Windows] or for mobile system
2. Click on [Download]
Attention.
If the test YOU are NOT a ROBOT - does not work, then You are using an outdated browser.
Install the current browser and click on [Download]

Do not work with Yandex browser. Uploading files to them is erroneous.
Security: torrent client is allowed by Kaspersky.

[en.asmlocator.ru].t4736.torrent 
Torrent: Registered [ 2015-12-02 05:40 ] · 1F9EB7F59192632895EEF41A6874A5F4CDF2A35F

Download .torrent

Download

17 KB

Status: checked
Completed: 0 times
Size: 819 MB
terms.php
[Profile] [PM]
Display posts:    
Reply to topic

Current time is: 11-Jul 20:28

All times are UTC ± 0



You cannot post new topics in this forum
You cannot reply to topics in this forum
You cannot edit your posts in this forum
You cannot delete your posts in this forum
You cannot vote in polls in this forum
You cannot attach files in this forum
You can download files in this forum
Верим фактам, а не вранью Путина! Факт, что Правительство ведёт Россию к истреблению.
Так как численность населения падает, даже не смотря на приток эмигрантов!
Русская нация вымирает и вырождается, смешиваясь с эмигрантами!
Факт, что военных и граждан предприятий заставляют голосовать за партию Единая Россия и Путина
ПОД СТРАХОМ УВОЛЬНЕНИЯ!
Нам не нужно Правительство, блокирующее личную жизнь, интернет, нарушающее сохранность данных.
Все эти действия финансируются за счёт народа!