Голубое Небо / Синее Небо / Blue Sky (Тони Ричардсон / Tony Richardson) [1994, США, драма, мелодрама, HDTVRip] DVO (НТВ)

Reply to topic
DL-List and Torrent activity
Size:  1.46 GB   |    Registered:  4 years 3 months   |    Completed:  0 times

Seeder not seen: Never

 
   
 
 
Author Message

star21 ®

Gender: Female

Longevity: 4 years 4 months

Posts: 551945

Location: Екатеринбург

Post 02-Dec-2015 05:41

[Quote]

Голубое Небо / Синее Небо / Blue Sky
Год выпуска: 1994
Страна: США
Жанр: драма, мелодрама
Продолжительность: 01:37:03
Перевод: Профессиональный (двухголосый закадровый) - НТВ
Cубтитры: нет
Режиссер: Тони Ричардсон / Tony Richardson
В ролях: Джессика Лэнг (Carly Marshall), Томми ли Джонс (Hank Marshall), Пауэрс Бут (Vince Johnson), Кэрри Снодгресс (Vera Johnson), Эми Локейн (Alex Marshall), Крис О'Доннелл (Glenn Johnson), Митчелл Райан (Ray Stevens), Дейл Дай (Col. Mike Anwalt), Тимоти Скотт (Ned Owens), Энни Росс (Lydia)-Мировая премьера: 9 сентября 1994-Описание: Майор Маршалл, отвечает за контроль уровня радиации при подземных ядерных испытаниях. Во время одного из таких испытаний облучению подверглись случайно оказавшиеся поблизости люди. Несмотря на прямой приказ, майор продолжал настаивать на том, что это преступление, требуя огласки. Опасающееся скандала начальство засадило майора в психиатрическую больницу, используя жену, подписавшую необходимые бумаги, думая, что этим спасает его от тюрьмы. Когда же она поняла, что натворила, то начинает одержимо бороться за справедливость и своего мужа.-Огромная благодарность:
- .
- собственная запись перевода с телеканала НТВ в конце 90-х годов через видеомагнитофон и оцифровка с видеокассеты.
- синхронизация перевода.-Данный перевод на трекере появляется впервые.
В переводе есть одна вставка MVO перевода в эпизоде 00:33:38 - 00:33:49, поскольку он был пропущен из за рекламной паузы.-На русский язык фильм озвучен телекомпанией НТВ.
Текст читают Ирина Маликова и Аристарх Ливанов.-Рейтинг

MPAA: PG-13 - Детям до 13 лет просмотр не обязателен.-Качество видео: HDTVRip
Формат видео: AVI -> //SAMPLE//
Видео: XviD, 704x384 (1.85:1), 25.000 fps, 1945 kbps avg
Аудио:
1 - 48 khz, AC3 Dolby Digital, 2/0 (L,R) ch, ~192 kbps [НТВ] VHSRip

MediaInfo

General
Complete name : D:\Торрент Файлы\Будущие Релизы на Трекере\1.35 - 1.46 и более гб\Голубое Небо (НТВ).avi
Format : AVI
Format/Info : Audio Video Interleave
File size : 1.46 GiB
Duration : 1h 37mn
Overall bit rate : 2 147 Kbps
Movie name : Голубое небо / Синее небо / Blue sky
Director : lcd1232
Writing application : VirtualDubMod 1.5.10.3 | www.virtualdub-fr.org || (build 2550/release)
Writing library : VirtualDubMod build 2550/release
Copyright : HDTVRip
Comment : 1994
Video
ID : 0
Format : MPEG-4 Visual
Format profile : Advanced Simple@L5
Format settings, BVOP : 1
Format settings, QPel : No
Format settings, GMC : No warppoints
Format settings, Matrix : Default (MPEG)
Codec ID : XVID
Codec ID/Hint : XviD
Duration : 1h 37mn
Bit rate : 1 945 Kbps
Width : 704 pixels
Height : 384 pixels
Display aspect ratio : 1.85:1
Frame rate : 25.000 fps
Color space : YUV
Chroma subsampling : 4:2:0
Bit depth : 8 bits
Scan type : Progressive
Compression mode : Lossy
Bits/(Pixel*Frame) : 0.288
Stream size : 1.32 GiB (91%)
Writing library : XviD 1.2.1 (UTC 2008-12-04)
Audio
ID : 1
Format : AC-3
Format/Info : Audio Coding 3
Mode extension : CM (complete main)
Format settings, Endianness : Big
Codec ID : 2000
Duration : 1h 37mn
Bit rate mode : Constant
Bit rate : 192 Kbps
Channel(s) : 2 channels
Channel positions : Front: L R
Sampling rate : 48.0 KHz
Compression mode : Lossy
Stream size : 133 MiB (9%)
Alignment : Split accross interleaves
Interleave, duration : 40 ms (1.00 video frame)
Interleave, preload duratio : 500 ms

Скриншот c названием фильма

Скриншоты

To download the content you need:
1. Download and install torrent client [for Windows] or for mobile system
2. Click on [Download]
Attention.
If the test YOU are NOT a ROBOT - does not work, then You are using an outdated browser.
Install the current browser and click on [Download]

Do not work with Yandex browser. Uploading files to them is erroneous.
Security: torrent client is allowed by Kaspersky.

[en.asmlocator.ru].t4733.torrent 
Torrent: Registered [ 2015-12-02 05:40 ] · B9A25D719CF399D91F794D3CC305870280F6CD59

Download .torrent

Download

15 KB

Status: checked
Completed: 0 times
Size: 1.46 GB
terms.php
[Profile] [PM]
Display posts:    
Reply to topic

Current time is: 29-Mar 17:38

All times are UTC ± 0



You cannot post new topics in this forum
You cannot reply to topics in this forum
You cannot edit your posts in this forum
You cannot delete your posts in this forum
You cannot vote in polls in this forum
You cannot attach files in this forum
You can download files in this forum
Верим фактам, а не вранью Путина! Факт, что Правительство ведёт Россию к истреблению.
Так как численность населения падает, даже не смотря на приток эмигрантов!
Русская нация вымирает и вырождается, смешиваясь с эмигрантами!
Факт, что военных и граждан предприятий заставляют голосовать за партию Единая Россия и Путина
ПОД СТРАХОМ УВОЛЬНЕНИЯ!
Нам не нужно Правительство, блокирующее личную жизнь, интернет, нарушающее сохранность данных.
Все эти действия финансируются за счёт народа!