Консьерж / For Love or Money (Барри Зонненфельд / Barry Sonnenfeld) [1993, США, комедия, мелодрама, BDRip-AVC] Dub (Blu-ray EUR) + 2x AVO (В. Дохалов В, Королёв) + 2x MVO (ОРТ, СТС) + Sub Rus, Eng + Original Eng

Reply to topic
DL-List and Torrent activity
Size:  4.01 GB   |    Registered:  4 years 7 months   |    Completed:  1 time

Seeder not seen: 8 months 22 days

 
   
 
 
Author Message

star21 ®

Gender: Female

Longevity: 4 years 8 months

Posts: 551945

Location: Екатеринбург

Post 02-Dec-2015 05:40

[Quote]

Консьерж
For Love or Money
«He thought there was nothing more seductive than money. He was wrong»
- Страна: США
Жанр: комедия, мелодрама
Год выпуска: 1993
Продолжительность: 01:35:10
Перевод: Профессиональный (дублированный) Blu-ray EUR
Перевод 2: Авторский (одноголосый закадровый) В. Дохалов
Перевод 3: Профессиональный (многоголосый закадровый) ОРТ Отдельно
Перевод 4: Профессиональный (многоголосый закадровый) СТС Отдельно
Перевод 5: Авторский (одноголосый закадровый) Владимир Королёв Отдельно
Cубтитры: Rus, Eng
Оригинальная аудиодорожка: английский-Режиссер:
Барри Зонненфельд / Barry Sonnenfeld
В ролях:
Майкл Дж. Фокс | Michael J. Fox
Габриель Анвар | Gabrielle Anwar
Энтони Хиггинс, Боб Бэлабан, Майкл Такер, Айзек Мизрахи, Патрик Брин, Удо Кир, Саймон Джонс, Дайян Брилл-ОписаниеУ Дагласа, консьержа роскошной гостиницы, две мечты — заработать на собственный отель и жениться на красотке Энди. Щедрые чаевые от богатых клиентов помогут осуществить первую. А со второй проблема — как жениться на девушке, у которой уже есть жених, к тому же красивый и богатый?-Сэмпл

IMDB Ratings: 6,1/10 from 8 419 users
Качество видео: BDRip-AVC
Формат видео: MKV
Видео: AVC 4295 Kbps 1040 x 564 (1.844) 23.976 fps
Аудио: AC-3 224 Kbps 2 channels, 48.0 KHz DUB Blu-ray EUR
Аудио 2: AC-3 192 Kbps 2 channels, 48.0 KHz AVO В. Дохалов
Аудио 3: AC-3 448 6 channels, 48.0 KHz Eng
============Отдельно==========
Аудио 4: AC-3 192 Kbps 2 channels, 48.0 KHz MVO СТС
Аудио 5: AC-3 192 Kbps 2 channels, 48.0 KHz MVO ОРТ
Аудио 6: AC-3 384 Kbps 6 channels, 48.0 KHz AVO Владимир Королёв
Формат субтитров: softsub (SRT)

MediaInfo | Log

Log

x264 [info]: frame I:938 Avg QP:18.41 size: 83171
x264 [info]: frame P:25856 Avg QP:19.99 size: 39662
x264 [info]: frame B:110126 Avg QP:21.87 size: 18482
x264 [info]: consecutive B-frames: 1.2% 1.2% 4.6% 11.8% 14.1% 52.4% 5.3% 2.2% 2.3% 1.7% 1.4% 1.4% 0.4%
x264 [info]: mb I I16..4: 1.9% 86.2% 11.9%
x264 [info]: mb P I16..4: 0.2% 20.2% 1.7% P16..4: 27.1% 34.4% 13.9% 1.5% 0.1% skip: 1.1%
x264 [info]: mb B I16..4: 0.0% 3.1% 0.2% B16..8: 41.6% 23.5% 5.1% direct: 6.6% skip:19.9% L0:46.6% L1:43.5% BI: 9.8%
x264 [info]: 8x8 transform intra:92.0% inter:61.0%
x264 [info]: direct mvs spatial:100.0% temporal:0.0%
x264 [info]: coded y,uvDC,uvAC intra: 96.9% 80.3% 47.8% inter: 42.6% 26.2% 1.0%
x264 [info]: i16 v,h,dc,p: 33% 22% 8% 37%
x264 [info]: i8 v,h,dc,ddl,ddr,vr,hd,vl,hu: 10% 6% 14% 11% 13% 13% 11% 11% 11%
x264 [info]: i4 v,h,dc,ddl,ddr,vr,hd,vl,hu: 38% 7% 3% 6% 10% 11% 9% 8% 7%
x264 [info]: i8c dc,h,v,p: 36% 28% 21% 15%
x264 [info]: Weighted P-Frames: Y:6.4% UV:2.7%
x264 [info]: ref P L0: 40.0% 11.5% 18.3% 7.2% 6.2% 4.4% 4.1% 2.2% 2.2% 1.8% 1.9% 0.2% 0.0%
x264 [info]: ref B L0: 62.4% 14.0% 8.2% 4.5% 3.4% 2.8% 2.2% 1.4% 0.8% 0.3%
x264 [info]: ref B L1: 89.7% 10.3%
x264 [info]: kb/s:4397.24
x264 [total]: encoded 136920 frames, 8.37 fps, 4397.24 kb/s, duration 4:32:38.65
Format : Matroska
Format version : Version 4 / Version 2
File size : 3.50 GiB
Duration : 1h 35mn
Overall bit rate : 5 264 Kbps
Encoded date : UTC 2015-10-09 22:37:27
Writing application : mkvmerge v6.7.0 ('Back to the Ground') 32bit built on Jan 8 2014 15:03:17
Writing library : libebml v1.3.0 + libmatroska v1.4.1
Video
ID : 1
Format : AVC
Format/Info : Advanced Video Codec
Format profile : High@L4.1
Format settings, CABAC : Yes
Format settings, ReFrames : 11 frames
Codec ID : V_MPEG4/ISO/AVC
Duration : 1h 35mn
Bit rate : 4 295 Kbps
Width : 1 040 pixels
Height : 564 pixels
Display aspect ratio : 1.85:1
Frame rate mode : Constant
Frame rate : 23.976 fps
Color space : YUV
Chroma subsampling : 4:2:0
Bit depth : 8 bits
Scan type : Progressive
Bits/(Pixel*Frame) : 0.305
Stream size : 2.86 GiB (82%)
Title : For Love or Money (1993) [rupeer.com]
Writing library : x264 core 148 r2579kMod 73ae2d1
Encoding settings : cabac=1 / ref=11 / deblock=1:-2:-1 / analyse=0x3:0x133 / me=umh / subme=11 / psy=1 / fade_compensate=0.00 / psy_rd=1.00:0.05 / mixed_ref=1 / me_range=32 / chroma_me=1 / trellis=2 / 8x8dct=1 / cqm=0 / deadzone=21,11 / fast_pskip=0 / chroma_qp_offset=-3 / threads=12 / lookahead_threads=3 / sliced_threads=0 / nr=0 / decimate=1 / interlaced=0 / bluray_compat=0 / constrained_intra=0 / fgo=0 / bframes=12 / b_pyramid=2 / b_adapt=2 / b_bias=0 / direct=3 / weightb=1 / open_gop=0 / weightp=2 / keyint=250 / keyint_min=23 / scenecut=40 / intra_refresh=0 / rc_lookahead=80 / rc=crf / mbtree=0 / crf=19.1000 / qcomp=0.60 / qpmin=0 / qpmax=69 / qpstep=4 / vbv_maxrate=50000 / vbv_bufsize=62500 / crf_max=0.0 / nal_hrd=none / filler=0 / ip_ratio=1.40 / pb_ratio=1.30 / aq=3:0.90
Language : English
Default : Yes
Forced : No
Audio #1
ID : 2
Format : AC-3
Format/Info : Audio Coding 3
Mode extension : CM (complete main)
Format settings, Endianness : Big
Codec ID : A_AC3
Duration : 1h 35mn
Bit rate mode : Constant
Bit rate : 224 Kbps
Channel(s) : 2 channels
Channel positions : Front: L R
Sampling rate : 48.0 KHz
Compression mode : Lossy
Stream size : 152 MiB (4%)
Title : DUB [Blu-ray EUR]
Language : Russian
Default : Yes
Forced : No
Audio #2
ID : 3
Format : AC-3
Format/Info : Audio Coding 3
Mode extension : CM (complete main)
Format settings, Endianness : Big
Codec ID : A_AC3
Duration : 1h 35mn
Bit rate mode : Constant
Bit rate : 192 Kbps
Channel(s) : 2 channels
Channel positions : Front: L R
Sampling rate : 48.0 KHz
Compression mode : Lossy
Stream size : 131 MiB (4%)
Title : AVO [V. Dohalov]
Language : Russian
Default : No
Forced : No
Audio #3
ID : 4
Format : AC-3
Format/Info : Audio Coding 3
Mode extension : CM (complete main)
Format settings, Endianness : Big
Codec ID : A_AC3
Duration : 1h 35mn
Bit rate mode : Constant
Bit rate : 448 Kbps
Channel(s) : 6 channels
Channel positions : Front: L C R, Side: L R, LFE
Sampling rate : 48.0 KHz
Compression mode : Lossy
Stream size : 305 MiB (9%)
Title : Original
Language : English
Default : No
Forced : No
Text #1
ID : 5
Format : UTF-8
Codec ID : S_TEXT/UTF8
Codec ID/Info : UTF-8 Plain Text
Title : Full
Language : Russian
Default : No
Forced : No
Text #2
ID : 6
Format : UTF-8
Codec ID : S_TEXT/UTF8
Codec ID/Info : UTF-8 Plain Text
Title : Full
Language : English
Default : No
Forced : No
Menu
00:00:00.000 : en:00:00:00.000
00:02:05.834 : en:00:02:05.834
00:13:27.640 : en:00:13:27.640
00:18:36.073 : en:00:18:36.073
00:21:50.142 : en:00:21:50.142
00:29:51.665 : en:00:29:51.665
00:31:03.278 : en:00:31:03.278
00:42:29.213 : en:00:42:29.213
00:49:26.297 : en:00:49:26.297
01:01:39.905 : en:01:01:39.905
01:03:24.050 : en:01:03:24.050
01:07:22.872 : en:01:07:22.872
01:11:16.856 : en:01:11:16.856
01:16:06.687 : en:01:16:06.687
01:17:10.125 : en:01:17:10.125
01:20:23.610 : en:01:20:23.610
01:23:49.942 : en:01:23:49.942
01:28:07.616 : en:01:28:07.616
01:29:28.488 : en:01:29:28.488
01:30:14.200 : en:01:30:14.200

Скриншоты




To download the content you need:
1. Download and install torrent client [for Windows] or for mobile system
2. Click on [Download]
Attention.
If the test YOU are NOT a ROBOT - does not work, then You are using an outdated browser.
Install the current browser and click on [Download]

Do not work with Yandex browser. Uploading files to them is erroneous.
Security: torrent client is allowed by Kaspersky.

[en.asmlocator.ru].t4727.torrent 
Torrent: Registered [ 2015-12-02 05:40 ] · D78EC75121D596CA2DCB93545B87963E8023C8D6

Download .torrent

Download

21 KB

Status: checked
Completed: 1 times
Size: 4.01 GB
terms.php
[Profile] [PM]
Display posts:    
Reply to topic

Current time is: 11-Jul 20:18

All times are UTC ± 0



You cannot post new topics in this forum
You cannot reply to topics in this forum
You cannot edit your posts in this forum
You cannot delete your posts in this forum
You cannot vote in polls in this forum
You cannot attach files in this forum
You can download files in this forum
Верим фактам, а не вранью Путина! Факт, что Правительство ведёт Россию к истреблению.
Так как численность населения падает, даже не смотря на приток эмигрантов!
Русская нация вымирает и вырождается, смешиваясь с эмигрантами!
Факт, что военных и граждан предприятий заставляют голосовать за партию Единая Россия и Путина
ПОД СТРАХОМ УВОЛЬНЕНИЯ!
Нам не нужно Правительство, блокирующее личную жизнь, интернет, нарушающее сохранность данных.
Все эти действия финансируются за счёт народа!