Беглец / Бегущий от правосудия / Беглец от правосудия / The Fugitive (Эндрю Дэвис / Andrew Davis) [1993, США, Детектив, Триллер, VHSRip] [Fullscreen] AVO (Володарский)

Reply to topic
DL-List and Torrent activity
Size:  1.46 GB   |    Registered:  4 years 4 months   |    Completed:  1 time

Seeder not seen: 5 months 16 days

 
   
 
 
Author Message

star21 ®

Gender: Female

Longevity: 4 years 4 months

Posts: 551945

Location: Екатеринбург

Post 02-Dec-2015 05:40

[Quote]

Беглец / Бегущий от правосудия / Беглец от правосудия / The Fugitive
[Fullscreen]
Страна: США
Жанр: Детектив, Триллер
Год выпуска: 1993
Продолжительность: 02:10:21
Перевод: Авторский (одноголосый закадровый) Володарский
Cубтитры: нет
Режиссер: Эндрю Дэвис / Andrew Davis
В ролях: Харрисон Форд, Томми Ли Джонс, Джо Пантольяно, Ерун Краббе, Села Уорд, Джулианна Мур
Описание: Вариант 1: Аннотация от alenavova
Врач-хирург сделал операцию, пришел домой, позвал жену: "Дорогая!" - и она в ответ произнесла имя мужа: "Ричард...", что его и сгубило. Поскольку жена произнесла имя своего благоверного в телефонную трубку уже после того, как диспетчер не единожды спросил ее: "Кто с вами сейчас? Кто с вами рядом?" На суде была прокручена магнитофонная пленка с записью предсмертных слов жены, и врач Ричард услышал приговор: "Смерть в газовой камере!" По пути из одной тюрьмы в другую ему "подфартило", и он пустился в бега. Но не для того, чтобы скрыться, а чтобы самому найти того, кто скорее всего убил его супругу. Особая примета - протез руки с каким-то специальным шарнирным соединением... Харрисон Форд хорош как в бороде (до суда), так и без бороды (после суда), и даже в щетине (в процессе убегания от назойливых полицейских). Томми Ли Джонс играет преследователя врача. До поры до времени не очень-то ясно, что его герой - не "плохой полицейский", а просто детектив-буквоед: если уж сбежал из-под стражи приговоренный к смерти, то почему бы кучу других жизней не положить на то, чтобы вернуть преступника на полагающееся ему место?
Вариант 2: Превосходный приключенческий триллер, занявший в 1993 году в американском прокате второе место по кассовым сборам (после "Парка Юрского периода"). Злодейски убита жена хирурга Ричарда Кимбла. Его арестовывают по обвинению в убийстве. Доктор скрывается от правосудия и в одиночку ведет поиск настоящего киллера, в то время как устремившийся за беглецом сыщик Сэмюел Жерар дышит ему в спину. Дуэль Харрисона Форда в роли Кимбла и Томми Ли Джонса в роли Жерара завораживает бешеной энергией и изобретательностью оппонентов. Джонс по праву получил актерского "Оскара", только почему-то за роль второго плана. Номинации за операторскую работу (Майкл Чэпмэн), лучший фильм, монтаж, музыку, звук и монтаж звуковых эффектов. (Иванов М.)
Доп. информация: Оцифровка VHS (личный архив) и получение VHSRip alenavova
Эксклюзив для rutracker.org. При размещении данного релиза на других сайтах ссылка на автора alenavova обязательна.

Релиз
Сэмпл: https://yadi.sk/i/j2TQ-GKAjf6YH
Качество видео: VHSRip
Формат видео: AVI
Видео: 704x528 (1.33:1), 25 fps, XviD build 50 ~1407 kbps avg, 0.15 bit/pixel
Аудио: 48 kHz, AC3 Dolby Digital, 2/0 (L,R) ch, ~192 kbps

MediaInfo

Беглец - The Fugitive (by alenavova).avi
Format : AVI
Format/Info : Audio Video Interleave
File size : 1.46 GiB
Duration : 2h 10mn
Overall bit rate : 1 609 Kbps
Movie name : Беглец - The Fugitive (by alenavova)
Director : by alenavova
Writing application : VirtualDubMod 1.5.10.3 | www.virtualdub-fr.org || (build 2550/release)
Copyright : Edich2
Comment : RuTracker.org
Video
ID : 0
Format : MPEG-4 Visual
Format profile : Advanced Simple@L5
Format settings, BVOP : 1
Format settings, QPel : No
Format settings, GMC : No warppoints
Format settings, Matrix : Default (MPEG)
Codec ID : XVID
Codec ID/Hint : XviD
Duration : 2h 10mn
Bit rate : 1 407 Kbps
Width : 704 pixels
Height : 528 pixels
Display aspect ratio : 4:3
Frame rate : 25.000 fps
Color space : YUV
Chroma subsampling : 4:2:0
Bit depth : 8 bits
Scan type : Progressive
Compression mode : Lossy
Bits/(Pixel*Frame) : 0.151
Stream size : 1.28 GiB (87%)
Writing library : XviD 1.2.1 (UTC 2008-12-04)
Audio
ID : 1
Format : AC-3
Format/Info : Audio Coding 3
Mode extension : CM (complete main)
Format settings, Endianness : Big
Codec ID : 2000
Duration : 2h 10mn
Bit rate mode : Constant
Bit rate : 192 Kbps
Channel(s) : 2 channels
Channel positions : Front: L R
Sampling rate : 48.0 KHz
Bit depth : 16 bits
Compression mode : Lossy
Stream size : 179 MiB (12%)
Alignment : Split accross interleaves
Interleave, duration : 40 ms (1.00 video frame)
Interleave, preload duration : 500 ms

Скриншоты


To download the content you need:
1. Download and install torrent client [for Windows] or for mobile system
2. Click on [Download]
Attention.
If the test YOU are NOT a ROBOT - does not work, then You are using an outdated browser.
Install the current browser and click on [Download]

Do not work with Yandex browser. Uploading files to them is erroneous.
Security: torrent client is allowed by Kaspersky.

[en.asmlocator.ru].t4720.torrent 
Torrent: Registered [ 2015-12-02 05:40 ] · 359722D0BD1E30D220D87605FA4E540FCADE8AE7

Download .torrent

Download

15 KB

Status: checked
Completed: 1 times
Size: 1.46 GB
terms.php
[Profile] [PM]
Display posts:    
Reply to topic

Current time is: 05-Apr 04:57

All times are UTC ± 0



You cannot post new topics in this forum
You cannot reply to topics in this forum
You cannot edit your posts in this forum
You cannot delete your posts in this forum
You cannot vote in polls in this forum
You cannot attach files in this forum
You can download files in this forum
Верим фактам, а не вранью Путина! Факт, что Правительство ведёт Россию к истреблению.
Так как численность населения падает, даже не смотря на приток эмигрантов!
Русская нация вымирает и вырождается, смешиваясь с эмигрантами!
Факт, что военных и граждан предприятий заставляют голосовать за партию Единая Россия и Путина
ПОД СТРАХОМ УВОЛЬНЕНИЯ!
Нам не нужно Правительство, блокирующее личную жизнь, интернет, нарушающее сохранность данных.
Все эти действия финансируются за счёт народа!