Эвита / Evita (Алан Паркер / Tim Hunter) [1996, США, Музыкальная драма, HDRip] AVO (Юрий Живов) + Original Eng

Reply to topic
DL-List and Torrent activity
Size:  2.19 GB   |    Registered:  4 years 4 months   |    Completed:  0 times

Seeder not seen: Never

 
   
 
 
Author Message

star21 ®

Gender: Female

Longevity: 4 years 5 months

Posts: 551945

Location: Екатеринбург

Post 02-Dec-2015 05:40

[Quote]

Эвита / Evita
Страна: США
Жанр: Музыкальная драма
Год выпуска: 1996
Продолжительность: 02:14:45
Перевод: Авторский (одноголосый закадровый) Юрий Живов
Cубтитры: нет
Оригинальная аудиодорожка: английский
Режиссер: Алан Паркер / Tim Hunter
В ролях: Мадонна (Эва Дуарте), Антонио Бандерас (Че Гевара), Джимми Нейл (Августин Магальди), Джонатан Прайс (Хуан Перон), Виктория Сус (донья Хуана), Джулия Уорсли (Эрминда), Николас Грейс (менеджер салона)
Описание: Фильм по музыкальной пьесе "Эвита" на слова Тима Райса и музыку Эндрю Ллойда Уэббера, поставленной на Бродвее Робертом Стигвудом вместе с Дэвидом Лэндом. Райсу и Уэбберу не удалось достичь вершин их самой популярной рок-оперы "Иисус Христос Суперзвезда", но тем не менее любители музыки и поклонники таланта режиссера Элана Паркера смогут получить удовольствие от истории о бедной девушке Эве Дуарте (Мадонна), ставшей женой президента Аргентины Хуана Перона (Прайс). Наверняка захотят посмотреть на своих кумиров и те, кому нравятся Мадонна и Антонио Бандерас. Компания WEST VIDEO записала фильм с великолепным звуком Hi-Fi с цифрового мастера, дав перевод в субтитрах, что позволяет в полной мере насладиться музыкой и песнями владельцам соответствующей аппаратуры. (Иванов М.)
Доп. информация: Дорожка с Ю. Живовым синхронизирована, ремастерирована, преобразована в СТЕРЕО и наложена ale_x2008 при помощи iZotope RX2, Sony Vegas и VirtualDubMod.
За оцифрованную с VHS дорожку благодарим - d_rocker

Релиз
Сэмпл: https://yadi.sk/i/rDDkaw4ujgNru
Качество видео: HDRip [by miha2154]
Формат видео: AVI
Видео: XviD, 720x304 (2.37:1), 23.976 fps, 1669 kbps avg, 0.32 bit/pixel
Аудио: AC3 Dolby Digital, 48000Hz, 2/0 (L,R) ch (stereo), 192.00 kbps avg
Аудио 2: 48 kHz, AC3 Dolby Digital, 3/2 (L,C,R,l,r) + LFE ch, ~448 kbps

MediaInfo

Эвита - Evita [by Edich2].avi
Format : AVI
Format/Info : Audio Video Interleave
Format profile : OpenDML
File size : 2.19 GiB
Duration : 2h 14mn
Overall bit rate : 2 327 Kbps
Movie name : Эвита / Evita (1996)
Director : miha2154
Writing application : VirtualDubMod 1.5.10.2 (build 2540/release)
Copyright : by Edich2
Comment : Rutracker.org
Video
ID : 0
Format : MPEG-4 Visual
Format profile : Advanced Simple@L5
Format settings, BVOP : 2
Format settings, QPel : No
Format settings, GMC : No warppoints
Format settings, Matrix : Default (MPEG)
Codec ID : XVID
Codec ID/Hint : XviD
Duration : 2h 14mn
Bit rate : 1 669 Kbps
Width : 720 pixels
Height : 304 pixels
Display aspect ratio : 2.35:1
Frame rate : 23.976 fps
Color space : YUV
Chroma subsampling : 4:2:0
Bit depth : 8 bits
Scan type : Progressive
Compression mode : Lossy
Bits/(Pixel*Frame) : 0.318
Stream size : 1.57 GiB (72%)
Writing library : XviD 1.1.0 (UTC 2005-11-22)
Audio #1
ID : 1
Format : AC-3
Format/Info : Audio Coding 3
Mode extension : CM (complete main)
Format settings, Endianness : Big
Codec ID : 2000
Duration : 2h 14mn
Bit rate mode : Constant
Bit rate : 192 Kbps
Channel(s) : 2 channels
Channel positions : Front: L R
Sampling rate : 48.0 KHz
Bit depth : 16 bits
Compression mode : Lossy
Stream size : 185 MiB (8%)
Alignment : Split accross interleaves
Interleave, duration : 42 ms (1.00 video frame)
Interleave, preload duration : 500 ms
Audio #2
ID : 2
Format : AC-3
Format/Info : Audio Coding 3
Mode extension : CM (complete main)
Format settings, Endianness : Big
Codec ID : 2000
Duration : 2h 14mn
Bit rate mode : Constant
Bit rate : 448 Kbps
Channel(s) : 6 channels
Channel positions : Front: L C R, Side: L R, LFE
Sampling rate : 48.0 KHz
Bit depth : 16 bits
Compression mode : Lossy
Stream size : 432 MiB (19%)
Alignment : Split accross interleaves
Interleave, duration : 42 ms (1.00 video frame)
Interleave, preload duration : 500 ms

Скриншоты


To download the content you need:
1. Download and install torrent client [for Windows] or for mobile system
2. Click on [Download]
Attention.
If the test YOU are NOT a ROBOT - does not work, then You are using an outdated browser.
Install the current browser and click on [Download]

Do not work with Yandex browser. Uploading files to them is erroneous.
Security: torrent client is allowed by Kaspersky.

[en.asmlocator.ru].t4714.torrent 
Torrent: Registered [ 2015-12-02 05:40 ] · 88ED9330FD641E79713442AAA9434700EA3465B3

Download .torrent

Download

11 KB

Status: checked
Completed: 0 times
Size: 2.19 GB
terms.php
[Profile] [PM]
Display posts:    
Reply to topic

Current time is: 10-Apr 08:05

All times are UTC ± 0



You cannot post new topics in this forum
You cannot reply to topics in this forum
You cannot edit your posts in this forum
You cannot delete your posts in this forum
You cannot vote in polls in this forum
You cannot attach files in this forum
You can download files in this forum
Верим фактам, а не вранью Путина! Факт, что Правительство ведёт Россию к истреблению.
Так как численность населения падает, даже не смотря на приток эмигрантов!
Русская нация вымирает и вырождается, смешиваясь с эмигрантами!
Факт, что военных и граждан предприятий заставляют голосовать за партию Единая Россия и Путина
ПОД СТРАХОМ УВОЛЬНЕНИЯ!
Нам не нужно Правительство, блокирующее личную жизнь, интернет, нарушающее сохранность данных.
Все эти действия финансируются за счёт народа!