Внезапное нападение / Ambushed (Эрнест Р. Дикерсон / Ernest R. Dickerson) [1998, США, боевик, триллер, DVDRip] DVO (Союз)

Reply to topic
DL-List and Torrent activity
Size:  1.42 GB   |    Registered:  4 years 3 months   |    Completed:  0 times

Seeder not seen: 2 years

 
   
 
 
Author Message

star21 ®

Gender: Female

Longevity: 4 years 4 months

Posts: 551945

Location: Екатеринбург

Post 02-Dec-2015 05:40

[Quote]

Внезапное нападение / Ambushed
Страна: США
Жанр: боевик, триллер
Год выпуска: 1998
Продолжительность: 01:39:51
Перевод: Профессиональный (двухголосый закадровый) Союз
(студия "Акцент": Александр Дик и Елена Борзова)
Cубтитры: нет
Оригинальная дорожка: нет
Режиссер: Эрнест Р. Дикерсон / Ernest R. Dickerson
В ролях: Кортни Б. Вэнс /Courtney B. Vance/, Джереми Леллиотт /Jeremy Lelliott/, Уильям Форсайт /William Forsythe/, Дэвид Кит /David Keith/, Вирджиния Мэдсен /Virginia Madsen/, Билл Нанн /Bill Nunn/, Чарлз Халлахан /Charles Hallahan/, Уильям Сэдлер /William Sadler/, Роберт Патрик /Robert Patrick/
Описание: Вариант 1. Очень крутой для телепродукции боевик. Белые расисты-куклуксклановцы убивают одного из своих лидеров, чтобы обвинить во всем чернокожих радикалов. В живых остается его 12-летний сын, видевший, что убийство совершено белыми, а не черными, как утверждает подставной белый свидетель. На следующее утро его отправляют в безопасное место, но один из сопровождающих полицейских (Кит) звонит по телефону расистам, и по пути машина подвергается обстрелу. Все попавшие в засаду полицейские погибают, кроме чернокожего Робинсона (Вэнс). Ему удается уйти от убийц вместе с мальчиком, ярым расистом, ненавидящим негров. Робинсона обвиняют в убийстве своих коллег-полицейских, но его подруга (Мэдсен), работающая с ним в одном участке, не верит в его виновность. Она одна помогает ему выпутаться из жуткой ситуации, когда за ним и мальчиком охотятся одновременно расисты в полицейской форме и куклуксклановцы. Смотрится жестко снятый фильм с напряжением и интересом. (Иванов М.)
Вариант 2. Чернокожий полицейский и его молодой напарник расследуют дело о загадочном зверском убийстве лидера фашистской банды. Единственным свидетелем трагического происшествия оказывается сын убитого, который, как подозревает следователь, сам одержим идеями отца.
Но обстоятельства расследования оборачиваются против сыщика, когда его молодой напарник погибает при весьма странных обстоятельствах. Оказавшись подставленным, полицейский пытается выйти живым из смертельной игры, в которую его втягивает обезумевшая банда фашистов…
Доп. информация: Благодарность:
Fikaloid - за дорожку DVO с VHS
xelon2006 - за синхрон дорожки.

Релиз
Сэмпл: https://yadi.sk/i/Oj89PDS4jhEuQ
Качество видео: DVDRip
Формат видео: AVI
Видео: 720x416 (1.73:1), 23.976 fps, XviD build 46 ~1831 kbps avg, 0.26 bit/pixel
Аудио: 48 kHz, AC3 Dolby Digital, 2/0 (L,R) ch, ~192 kbps

MediaInfo

Внезапное нападение - Ambushed [by Edich2].avi
Format : AVI
Format/Info : Audio Video Interleave
File size : 1.42 GiB
Duration : 1h 39mn
Overall bit rate : 2 034 Kbps
Writing application : VirtualDubMod 1.5.10.2 (build 2540/release)
Writing library : VirtualDubMod build 2540/release
Video
ID : 0
Format : MPEG-4 Visual
Format profile : Advanced Simple@L5
Format settings, BVOP : 1
Format settings, QPel : No
Format settings, GMC : No warppoints
Format settings, Matrix : Custom
Codec ID : XVID
Codec ID/Hint : XviD
Duration : 1h 39mn
Bit rate : 1 832 Kbps
Width : 720 pixels
Height : 416 pixels
Display aspect ratio : 1.731
Frame rate : 23.976 fps
Color space : YUV
Chroma subsampling : 4:2:0
Bit depth : 8 bits
Scan type : Progressive
Compression mode : Lossy
Bits/(Pixel*Frame) : 0.255
Stream size : 1.28 GiB (90%)
Writing library : XviD 1.1.2 (UTC 2006-11-01)
Audio
ID : 1
Format : AC-3
Format/Info : Audio Coding 3
Mode extension : CM (complete main)
Format settings, Endianness : Big
Codec ID : 2000
Duration : 1h 39mn
Bit rate mode : Constant
Bit rate : 192 Kbps
Channel(s) : 2 channels
Channel positions : Front: L R
Sampling rate : 48.0 KHz
Bit depth : 16 bits
Compression mode : Lossy
Stream size : 137 MiB (9%)
Alignment : Split accross interleaves
Interleave, duration : 42 ms (1.00 video frame)
Interleave, preload duration : 500 ms
Language : English

To download the content you need:
1. Download and install torrent client [for Windows] or for mobile system
2. Click on [Download]
Attention.
If the test YOU are NOT a ROBOT - does not work, then You are using an outdated browser.
Install the current browser and click on [Download]

Do not work with Yandex browser. Uploading files to them is erroneous.
Security: torrent client is allowed by Kaspersky.

[en.asmlocator.ru].t4708.torrent 
Torrent: Registered [ 2015-12-02 05:40 ] · 2F02A38F3F5191B0BD34AB7939F2511B2F3773C4

Download .torrent

Download

15 KB

Status: checked
Completed: 0 times
Size: 1.42 GB
terms.php
[Profile] [PM]
Display posts:    
Reply to topic

Current time is: 31-Mar 15:40

All times are UTC ± 0



You cannot post new topics in this forum
You cannot reply to topics in this forum
You cannot edit your posts in this forum
You cannot delete your posts in this forum
You cannot vote in polls in this forum
You cannot attach files in this forum
You can download files in this forum
Верим фактам, а не вранью Путина! Факт, что Правительство ведёт Россию к истреблению.
Так как численность населения падает, даже не смотря на приток эмигрантов!
Русская нация вымирает и вырождается, смешиваясь с эмигрантами!
Факт, что военных и граждан предприятий заставляют голосовать за партию Единая Россия и Путина
ПОД СТРАХОМ УВОЛЬНЕНИЯ!
Нам не нужно Правительство, блокирующее личную жизнь, интернет, нарушающее сохранность данных.
Все эти действия финансируются за счёт народа!