Черный прилив / Темный прилив / Смертельный прилив / Темные приливы / Dark Tide (Лука Берковичи / Luca Bercovici) [1994, США, триллер, VHSRip] AVO (Прямостанов)

Reply to topic
DL-List and Torrent activity
Size:  1.37 GB   |    Registered:  4 years 3 months   |    Completed:  1 time

Seeder not seen: 3 months 13 days

 
   
 
 
Author Message

star21 ®

Gender: Female

Longevity: 4 years 4 months

Posts: 551945

Location: Екатеринбург

Post 02-Dec-2015 05:40

[Quote]

Черный прилив / Темный прилив / Смертельный прилив / Темные приливы / Dark Tide
Страна: США
Жанр: триллер + небольшая капля эротики
Год выпуска: 1994
Продолжительность: 01:34:14
Перевод: Авторский (одноголосый закадровый) Прямостанов
Cубтитры: нет
Режиссер: Лука Берковичи / Luca Bercovici
В ролях: Крис Сарандон, Ричард Тайсон, Бриджит Бако...
Описание: Аннотация от alenavova
Место действия - остров где-то, скорее всего, в Юго-Восточной Азии. Там очень жарко, там дикие нравы, там местное население поклоняется языческим Змеиным Богам, ибо нет ничего страшней морских змей по прозвищу "Уманайя-курабайя" (или нечто вроде этого), что в переводе означает "Восемь минут" (ровно столько человеку отпущено жизни после ее укуса). Один главный герой ловит именно этих змей, потому что их яд очень высоко цениться медиками всего мира. Другой главный герой - помогает первому, однако на лице его написано, что он себе на уме. И туда приезжает главная героиня, потому что первый главный герой спас ей жизнь, а она теперь чувствует себя должницей. В первые минуты своего пребывания на лодке ловца змей девушка вела себя достаточно вольно и даже не заметила, как обронила платочек. Именно этому платочку уготовано сыграть роковую роль, потому что второй главный геой наверняка воспринял падение платочка как сигнал к одобрению агрессивных действий с его стороны.
Доп. информация: Оцифровка VHS (личный архив) и получение VHSRip alenavova
Эксклюзив для rutracker.org. При размещении данного релиза на других сайтах ссылка на автора alenavova обязательна.

Релиз
Сэмпл: https://yadi.sk/i/fKE0TWVRjhyAz
Качество видео: VHSRip
Формат видео: AVI
Видео: 704x512 (1.38:1), 25 fps, XviD build 50 ~1875 kbps avg, 0.21 bit/pixel
Аудио: 48 kHz, AC3 Dolby Digital, 2/0 (L,R) ch, ~192 kbps

MediaInfo

Черный прилив - Dark Tide (by alenavova).avi
Format : AVI
Format/Info : Audio Video Interleave
File size : 1.37 GiB
Duration : 1h 34mn
Overall bit rate : 2 077 Kbps
Movie name : Черный прилив - Dark Tide (by alenavova)
Director : by alenavova
Writing application : VirtualDubMod 1.5.10.3 | www.virtualdub-fr.org || (build 2550/release)
Copyright : Edich2
Comment : RuTracker.org
Video
ID : 0
Format : MPEG-4 Visual
Format profile : Advanced Simple@L5
Format settings, BVOP : 1
Format settings, QPel : No
Format settings, GMC : No warppoints
Format settings, Matrix : Default (MPEG)
Codec ID : XVID
Codec ID/Hint : XviD
Duration : 1h 34mn
Bit rate : 1 875 Kbps
Width : 704 pixels
Height : 512 pixels
Display aspect ratio : 1.375
Frame rate : 25.000 fps
Color space : YUV
Chroma subsampling : 4:2:0
Bit depth : 8 bits
Scan type : Progressive
Compression mode : Lossy
Bits/(Pixel*Frame) : 0.208
Stream size : 1.23 GiB (90%)
Writing library : XviD 1.2.1 (UTC 2008-12-04)
Audio
ID : 1
Format : AC-3
Format/Info : Audio Coding 3
Mode extension : CM (complete main)
Format settings, Endianness : Big
Codec ID : 2000
Duration : 1h 34mn
Bit rate mode : Constant
Bit rate : 192 Kbps
Channel(s) : 2 channels
Channel positions : Front: L R
Sampling rate : 48.0 KHz
Bit depth : 16 bits
Compression mode : Lossy
Stream size : 129 MiB (9%)
Alignment : Split accross interleaves
Interleave, duration : 40 ms (1.00 video frame)
Interleave, preload duration : 500 ms

Скриншоты




To download the content you need:
1. Download and install torrent client [for Windows] or for mobile system
2. Click on [Download]
Attention.
If the test YOU are NOT a ROBOT - does not work, then You are using an outdated browser.
Install the current browser and click on [Download]

Do not work with Yandex browser. Uploading files to them is erroneous.
Security: torrent client is allowed by Kaspersky.

[en.asmlocator.ru].t4700.torrent 
Torrent: Registered [ 2015-12-02 05:40 ] · 5365A01E9D5B3C8D78E9CC804F1A7BF8C738A7D1

Download .torrent

Download

14 KB

Status: checked
Completed: 1 times
Size: 1.37 GB
terms.php
[Profile] [PM]
Display posts:    
Reply to topic

Current time is: 31-Mar 18:42

All times are UTC ± 0



You cannot post new topics in this forum
You cannot reply to topics in this forum
You cannot edit your posts in this forum
You cannot delete your posts in this forum
You cannot vote in polls in this forum
You cannot attach files in this forum
You can download files in this forum
Верим фактам, а не вранью Путина! Факт, что Правительство ведёт Россию к истреблению.
Так как численность населения падает, даже не смотря на приток эмигрантов!
Русская нация вымирает и вырождается, смешиваясь с эмигрантами!
Факт, что военных и граждан предприятий заставляют голосовать за партию Единая Россия и Путина
ПОД СТРАХОМ УВОЛЬНЕНИЯ!
Нам не нужно Правительство, блокирующее личную жизнь, интернет, нарушающее сохранность данных.
Все эти действия финансируются за счёт народа!