Спина к спине / Back to Back (Роджер Найгард / Roger Nygard) [1996, США, боевик, DVDRip] DVO (НТВ) + Original Eng

Reply to topic
DL-List and Torrent activity
Size:  1.46 GB   |    Registered:  4 years 3 months   |    Completed:  1 time

Seeder not seen: 5 months 9 days

 
   
 
 
Author Message

star21 ®

Gender: Female

Longevity: 4 years 4 months

Posts: 551945

Location: Екатеринбург

Post 02-Dec-2015 05:40

[Quote]

Спина к спине / Back to Back Страна: США
Жанр: боевик
Год выпуска: 1996
Продолжительность: 01:27:45
Перевод: Профессиональный (двухголосый закадровый) НТВ
Cубтитры: нет
Оригинальная аудиодорожка: английский
Режиссер: Роджер Найгард / Roger Nygard
В ролях: Майкл Рукер, Рё Исибаси, Даниэль Харрис, Джон Лофлин, Кох Такасуги, Боб Голдтуэйт, Винсент Скьявелли
Описание: Наёмный убийца, работающий на якудзу, и бывший полицейский, презревший закон, сражаются спина к спине против армии безжалостных убийц, против всесильной мафии и закона, который на стороне продажных полицейских.
Судьба свела их вместе и они не могут не победить.
Два суперкиллера из якудза едут в Америку, чтобы казнить конкурента — дона итальянской мафии. Но не всё идет гладко: в ресторане убийцы сами становятся заложниками вооружённого психопата, и с этого момента действие развивается со скоростью сорвавшейся с катушки тележки «американских горок».
Доп. информация:
Видеоряд взят из этой раздачи .
За звуковую дорожку с переводом телекомпании НТВ большое спасибо SunderAlv.
За синхронизацию звуковой дороги огромная благодарность JUSTKANT.
В эпизоде 01:08:32 - 01:08:55 сделана вставка перевода Twister.
Роли озвучивали: Александр Рахленко и Любовь Германова.
Сэмпл: https://www.sendspace.com/file/8ycexh
Качество видео: DVDRip
Формат видео: AVI
Видео: 688x512, 25.000 fps, MPEG-4 Visual, 2055 Kbps, XviD 1.2.1
Аудио 1: 48 KHz, AC3, 2 ch, 192 Kbps - DVO (НТВ)
Аудио 2: 48 KHz, MP3, 2 ch, 128 Kbps - Original Eng

MediaInfo

General
Complete name : C:\Users\Спина к спине (НТВ).avi
Format : AVI
Format/Info : Audio Video Interleave
File size : 1.46 GiB
Duration : 1h 27mn
Overall bit rate : 2 389 Kbps
Writing application : VirtualDubMod 1.5.10.2 (build 2540/release)
Writing library : VirtualDubMod build 2540/release
Video
ID : 0
Format : MPEG-4 Visual
Format profile : Advanced Simple@L5
Format settings, BVOP : 1
Format settings, QPel : No
Format settings, GMC : No warppoints
Format settings, Matrix : Default (H.263)
Codec ID : XVID
Codec ID/Hint : XviD
Duration : 1h 27mn
Bit rate : 2 055 Kbps
Width : 688 pixels
Height : 512 pixels
Display aspect ratio : 4:3
Frame rate : 25.000 fps
Color space : YUV
Chroma subsampling : 4:2:0
Bit depth : 8 bits
Scan type : Progressive
Compression mode : Lossy
Bits/(Pixel*Frame) : 0.233
Stream size : 1.26 GiB (86%)
Writing library : XviD 1.2.1 (UTC 2008-12-04)
Audio #1
ID : 1
Format : AC-3
Format/Info : Audio Coding 3
Mode extension : CM (complete main)
Format settings, Endianness : Big
Codec ID : 2000
Duration : 1h 27mn
Bit rate mode : Constant
Bit rate : 192 Kbps
Channel(s) : 2 channels
Channel positions : Front: L R
Sampling rate : 48.0 KHz
Bit depth : 16 bits
Compression mode : Lossy
Stream size : 120 MiB (8%)
Alignment : Split accross interleaves
Interleave, duration : 40 ms (1.00 video frame)
Interleave, preload duration : 500 ms
Audio #2
ID : 2
Format : MPEG Audio
Format version : Version 1
Format profile : Layer 3
Codec ID : 55
Codec ID/Hint : MP3
Duration : 1h 27mn
Bit rate mode : Constant
Bit rate : 128 Kbps
Channel(s) : 2 channels
Sampling rate : 48.0 KHz
Compression mode : Lossy
Stream size : 80.3 MiB (5%)
Alignment : Aligned on interleaves
Interleave, duration : 40 ms (1.00 video frame)
Interleave, preload duration : 504 ms
Writing library : LAME3.98r
Encoding settings : -m s -V 4 -q 2 -lowpass 17 -b 128

Скриншоты

To download the content you need:
1. Download and install torrent client [for Windows] or for mobile system
2. Click on [Download]
Attention.
If the test YOU are NOT a ROBOT - does not work, then You are using an outdated browser.
Install the current browser and click on [Download]

Do not work with Yandex browser. Uploading files to them is erroneous.
Security: torrent client is allowed by Kaspersky.

[en.asmlocator.ru].t4698.torrent 
Torrent: Registered [ 2015-12-02 05:40 ] · 692D8EDAB01DC54617E307D33D41ADD50701BD36

Download .torrent

Download

15 KB

Status: checked
Completed: 1 times
Size: 1.46 GB
terms.php
[Profile] [PM]
Display posts:    
Reply to topic

Current time is: 28-Mar 23:36

All times are UTC ± 0



You cannot post new topics in this forum
You cannot reply to topics in this forum
You cannot edit your posts in this forum
You cannot delete your posts in this forum
You cannot vote in polls in this forum
You cannot attach files in this forum
You can download files in this forum
Верим фактам, а не вранью Путина! Факт, что Правительство ведёт Россию к истреблению.
Так как численность населения падает, даже не смотря на приток эмигрантов!
Русская нация вымирает и вырождается, смешиваясь с эмигрантами!
Факт, что военных и граждан предприятий заставляют голосовать за партию Единая Россия и Путина
ПОД СТРАХОМ УВОЛЬНЕНИЯ!
Нам не нужно Правительство, блокирующее личную жизнь, интернет, нарушающее сохранность данных.
Все эти действия финансируются за счёт народа!