Страсть / Искушение / The Right Temptation (Линдон Чаббак / Lyndon Chubbuck) [2000, США, триллер, драма, мелодрама, DVDRip] DVO (М1)

Reply to topic
DL-List and Torrent activity
Size:  1.45 GB   |    Registered:  4 years 4 months   |    Completed:  0 times

Seeder not seen: Never

 
   
 
 
Author Message

star21 ®

Gender: Female

Longevity: 4 years 4 months

Posts: 551945

Location: Екатеринбург

Post 02-Dec-2015 05:40

[Quote]

Страсть / Искушение / The Right Temptation
Страна: США
Жанр: триллер, драма, мелодрама
Год выпуска: 2000
Продолжительность: 01:28:29
Перевод: Профессиональный (двухголосый закадровый) (М1)
Cубтитры: нет
Оригинальная аудиодорожка: нет
Режиссер: Линдон Чаббак / Lyndon Chubbuck
В ролях: Кифер Сазерленд, Ребекка Де Морнэй, Дана Дилэйни, Адам Болдуин, Джоанна Кэссиди, Майкл Ральф, Роберт Джейн, Нил Флинн, Патрик О’Нил, Дония Кьяриция
Описание: Частного детектива Дериан нанимает ревнивая жена по имени Антея, чтобы уличить своего мужа Майкла в измене. Последив за Майклом, Дериан убеждается, что он примерный муж, пытающийся спасти разваливающийся брак.
Но Антея в это не верит. И она просит Дериан пофлиртовать с ее мужем. Однако, как это зачастую бывает, соблазнительница сама становится соблазненной.
Доп. информация:
Перевод с телеканала М1 (Первый Московский), подробности не известны, т.к. последняя фраза и титры затёрты следующей записью.
рип из этой раздачи
Сэмпл: http://sendfile.su/1164484
Качество видео: DVDRip
Формат видео: AVI
Видео: 720x400 (1.80:1), 25 fps, DivX Codec 6.8.5/6.9.1 ~2139 kbps avg, 0.30 bit/pixel
Аудио: 48 kHz, AC3 Dolby Digital, 2/0 (L,R) ch, ~192 kbps

MediaInfo

Формат : AVI
Формат/Информация : Audio Video Interleave
Размер файла : 1,45 Гбайт
Продолжительность : 1 ч. 28 м.
Общий поток : 2341 Кбит/сек
Библиотека кодирования : VirtualDub build 34807/release
Видео
Идентификатор : 0
Формат : MPEG-4 Visual
Параметр BVOP формата : 1
Параметр QPel формата : Нет
Параметр GMC формата : Без точки перехода
Параметр матрицы формата : Default (H.263)
Идентификатор кодека : DX50
Идентификатор кодека/Подсказка : DivX 5
Продолжительность : 1 ч. 28 м.
Битрейт : 2139 Кбит/сек
Ширина : 720 пикселей
Высота : 400 пикселей
Соотношение сторон : 16:9
Частота кадров : 25,000 кадров/сек
Цветовое пространство : YUV
Субдискретизация насыщенности : 4:2:0
Битовая глубина : 8 бит
Тип развёртки : Прогрессивная
Метод сжатия : С потерями
Бит/(Пиксели*Кадры) : 0.297
Размер потока : 1,32 Гбайт (91%)
Библиотека кодирования : DivX 6.8.5 (UTC 2009-08-20)
Аудио
Идентификатор : 1
Формат : AC-3
Формат/Информация : Audio Coding 3
Расширение режима : CM (complete main)
Идентификатор кодека : 2000
Продолжительность : 1 ч. 28 м.
Вид битрейта : Постоянный
Битрейт : 192 Кбит/сек
Каналы : 2 канала
Расположение каналов : Front: L R
Частота : 48,0 КГц
Битовая глубина : 16 бит
Метод сжатия : С потерями
Размер потока : 122 Мбайт (8%)
Выравнивание : Соединение по промежуткам
Продолжительность промежутка : 40 мс. (1,00 видеокадр)
Время предзагрузки промежутка : 512 мс.

Скриншоты

To download the content you need:
1. Download and install torrent client [for Windows] or for mobile system
2. Click on [Download]
Attention.
If the test YOU are NOT a ROBOT - does not work, then You are using an outdated browser.
Install the current browser and click on [Download]

Do not work with Yandex browser. Uploading files to them is erroneous.
Security: torrent client is allowed by Kaspersky.

[en.asmlocator.ru].t4697.torrent 
Torrent: Registered [ 2015-12-02 05:40 ] · EA0EDDCCF2AD300AA44587AD9B0140EC8B8632DB

Download .torrent

Download

29 KB

Status: checked
Completed: 0 times
Size: 1.45 GB
terms.php
[Profile] [PM]
Display posts:    
Reply to topic

Current time is: 04-Apr 14:55

All times are UTC ± 0



You cannot post new topics in this forum
You cannot reply to topics in this forum
You cannot edit your posts in this forum
You cannot delete your posts in this forum
You cannot vote in polls in this forum
You cannot attach files in this forum
You can download files in this forum
Верим фактам, а не вранью Путина! Факт, что Правительство ведёт Россию к истреблению.
Так как численность населения падает, даже не смотря на приток эмигрантов!
Русская нация вымирает и вырождается, смешиваясь с эмигрантами!
Факт, что военных и граждан предприятий заставляют голосовать за партию Единая Россия и Путина
ПОД СТРАХОМ УВОЛЬНЕНИЯ!
Нам не нужно Правительство, блокирующее личную жизнь, интернет, нарушающее сохранность данных.
Все эти действия финансируются за счёт народа!