Симфония моего детства / Min fynske barndom (Эрик Клаусен / Erik Clausen) [1994, Дания, драма, музыка, биография, TVRip-AVC] VO (2х Rus, Lit) + Sub Rus

Reply to topic
DL-List and Torrent activity
Size:  1.6 GB   |    Registered:  4 years 3 months   |    Completed:  1 time

Seeder not seen: 16 minutes

 
   
 
 
Author Message

star21 ®

Gender: Female

Longevity: 4 years 4 months

Posts: 551945

Location: Екатеринбург

Post 02-Dec-2015 05:40

[Quote]

Симфония моего детства / Min fynske barndom
Страна: Дания
Жанр: драма, музыка, биография
Год выпуска: 1994
Продолжительность: 02:05:42
Перевод: 1 Одноголосый закадровый (голос наложен на литовский перевод)
Перевод: 2 литовский одноголосый закадровый
Cубтитры: русские
Режиссер: Эрик Клаусен / Erik Clausen
В ролях: Мортен Гундель / Morten Gundel, Anders Forchhammer, Николай Ли Каас, Джеспер Милстед, Фриц Хельмут, Карл Билле, Эрлинг Билле
Описание: По автобиографической книге "Мое детство", известного датского композитора, скрипача и дирижера Карла Августа Нильсена.
Карл Аугуст Нильсен, современный датской музыкант, родился в деревне Нёрре Линдельс на острове Фюн. Его отец был маляром, но также умел играть на скрипке и часто сопровождал деревенские праздники. В восемь лет Нильсен начал учиться играть на скрипке, к этому же времени относятся его первые попытки сочинять музыку. Научившись играть на других инструментах, мальчик стал главным деревенским музыкантом. Позже, играл в армейском полку, пока он не стал всемирно известным композитором. Он пережил несчастную любовь, и, возможно, поэтому во многие его произведениях звучит тема любви.
Сэмпл: http://multi-up.com/1071333
Качество видео: TVRip-AVC
Формат видео: MKV
Видео: AVC at 1399 Кбит/сек : 720 x 576 (1.818) at 25.000 fps
Аудио 1: MPEG Audio at 192 Кбит/сек : 2 канала, 48,0 КГц Language : ru
Аудио 2: MPEG Audio at 192 Кбит/сек : 2 канала, 48,0 КГц Language : lit
Формат субтитров: softsub (SRT)
Доп. информация о субтитрах: Русские внешние (Juris)

MediaInfo

Общее
Уникальный идентификатор : 237021259844999737764132077189412346967 (0xB250A259913539759AA7AC0B65EADC57)
Полное имя : F:\С моей озвучкой\Симфония моего детства\Min_fynske_barndom.mkv
Формат : Matroska
Версия формата : Version 4 / Version 2
Размер файла : 1,60 Гбайт
Продолжительность : 2 ч. 5 м.
Общий поток : 1820 Кбит/сек
Дата кодирования : UTC 2015-10-14 20:17:19
Программа кодирования : mkvmerge v7.9.0 ('Birds') 64bit
Библиотека кодирования : libebml v1.3.1 + libmatroska v1.4.2
DURATION : 02:05:42.768000000
NUMBER_OF_FRAMES : 314282
NUMBER_OF_BYTES : 181026432
_STATISTICS_WRITING_APP : mkvmerge v7.9.0 ('Birds') 64bit
_STATISTICS_WRITING_DATE_UTC : 2015-10-14 20:17:19
_STATISTICS_TAGS : BPS DURATION NUMBER_OF_FRAMES NUMBER_OF_BYTES
Видео
Идентификатор : 1
Формат : AVC
Формат/Информация : Advanced Video Codec
Профиль формата : Main@L3.0
Параметр CABAC формата : Да
Параметр ReFrames формата : 4 кадра
Идентификатор кодека : V_MPEG4/ISO/AVC
Продолжительность : 2 ч. 5 м.
Битрейт : 1399 Кбит/сек
Ширина : 720 пикселей
Высота : 576 пикселей
Соотношение сторон : 16:9
Режим частоты кадров : Постоянный
Частота кадров : 25,000 кадров/сек
Стандарт вещания : PAL
Цветовое пространство : YUV
Субдискретизация насыщенности : 4:2:0
Битовая глубина : 8 бит
Тип развёртки : Чересстрочная
Порядок развёртки : Верхнее поле первое
Бит/(Пиксели*Кадры) : 0.135
Размер потока : 1,23 Гбайт (77%)
Default : Да
Forced : Нет
Основные цвета : BT.601 PAL
Характеристики трансфера : BT.470 System B, BT.470 System G
Коэффициенты матрицы : BT.601
Аудио #1
Идентификатор : 2
Формат : MPEG Audio
Версия формата : Version 1
Профиль формата : Layer 3
Режим : Joint stereo
Расширение режима : MS Stereo
Идентификатор кодека : A_MPEG/L3
Идентификатор кодека/Подсказка : MP3
Продолжительность : 2 ч. 5 м.
Вид битрейта : Постоянный
Битрейт : 192 Кбит/сек
Каналы : 2 канала
Частота : 48,0 КГц
Метод сжатия : С потерями
Размер потока : 173 Мбайт (11%)
Библиотека кодирования : LAME3.96
Язык : Russian
Default : Да
Forced : Нет
Аудио #2
Идентификатор : 3
Формат : MPEG Audio
Версия формата : Version 1
Профиль формата : Layer 3
Режим : Joint stereo
Расширение режима : MS Stereo
Идентификатор кодека : A_MPEG/L3
Идентификатор кодека/Подсказка : MP3
Продолжительность : 2 ч. 5 м.
Вид битрейта : Постоянный
Битрейт : 192 Кбит/сек
Каналы : 2 канала
Частота : 48,0 КГц
Метод сжатия : С потерями
Размер потока : 173 Мбайт (11%)
Язык : Danish
Default : Нет
Forced : Нет

Скриншоты

To download the content you need:
1. Download and install torrent client [for Windows] or for mobile system
2. Click on [Download]
Attention.
If the test YOU are NOT a ROBOT - does not work, then You are using an outdated browser.
Install the current browser and click on [Download]

Do not work with Yandex browser. Uploading files to them is erroneous.
Security: torrent client is allowed by Kaspersky.

[en.asmlocator.ru].t4696.torrent 
Torrent: Registered [ 2015-12-02 05:40 ] · 741FE388E35B2B6A46A24CB5B26813BB89EED6E1

Download .torrent

Download

17 KB

Status: checked
Completed: 1 times
Size: 1.6 GB
terms.php
[Profile] [PM]
Display posts:    
Reply to topic

Current time is: 31-Mar 16:56

All times are UTC ± 0



You cannot post new topics in this forum
You cannot reply to topics in this forum
You cannot edit your posts in this forum
You cannot delete your posts in this forum
You cannot vote in polls in this forum
You cannot attach files in this forum
You can download files in this forum
Верим фактам, а не вранью Путина! Факт, что Правительство ведёт Россию к истреблению.
Так как численность населения падает, даже не смотря на приток эмигрантов!
Русская нация вымирает и вырождается, смешиваясь с эмигрантами!
Факт, что военных и граждан предприятий заставляют голосовать за партию Единая Россия и Путина
ПОД СТРАХОМ УВОЛЬНЕНИЯ!
Нам не нужно Правительство, блокирующее личную жизнь, интернет, нарушающее сохранность данных.
Все эти действия финансируются за счёт народа!