Выдуманная жизнь Эбботов / Inventing the Abbotts (Пэт О’Коннор / Pat O\'Connor) [1997, США, мелодрама, HDTVRip] MVO (Первый канал) + Original Eng

Reply to topic
DL-List and Torrent activity
Size:  1.47 GB   |    Registered:  4 years 4 months   |    Completed:  1 time

Seeder not seen: 5 months 16 days

 
   
 
 
Author Message

star21 ®

Gender: Female

Longevity: 4 years 4 months

Posts: 551945

Location: Екатеринбург

Post 02-Dec-2015 05:40

[Quote]

Выдуманная жизнь Эбботов
Inventing the Abbotts

Страна: США
Жанр: мелодрама
Год выпуска: 1997
Продолжительность: 01:46:56-Перевод: Профессиональный (многоголосый закадровый)
Первый канал

Cубтитры: нет
Оригинальная аудиодорожка: английский-Режиссер: Пэт О’Коннор / Pat O'Connor
В ролях: Хоакин Феникс, Лив Тайлер, Дженнифер Коннелли, Уилл Пэттон, Кэти Бэйкер, Билли Крадап, Шон Хэтоси, Джоанна Гоинг, Барбара Уильямс, Майкл Саттон, Джули Бенц
Майкл Китон - рассказчик за кадром
-Описание: 1957 год. Маленький городок Иллинойс на Среднем Западе. Братья Даг и Джейси Холт, выросшие в простой рабочей семье, совсем непохожи друг на друга. Пятнадцатилетний Даг – тихий и застенчивый. Джейси – 17, он умный, целеустремленный, мечтает учиться в университете. Оба влюблены в красивых и богатых сестер Эббот – Памеллу и Элеонор. Пэм и Даг целиком отдаются нахлынувшему чувству, не задумываясь о разнице в социальном статусе своих семей. Джейси же, наоборот, ее отлично понимает. А еще он подозревает, что глава семейства Эббот, мистер Ллойд, украл патент на изобретение, сделанное его покойным отцом, и на этом разбогател…-Доп. информация: Английская дорога синхронизирована более точно, чем в HDTVRip 720p
О переводе: Перевод на трекере появляется впервые
Качество: цифровой эфир(Первый канал)
Запись и синхронизация:-Сэмпл: минута55сек-Качество видео: HDTVRip (спасибо хэнк с кинозала)
Формат видео: AVI
Видео: XVID, 720х400, 16:9, 23,976 кадра/сек, 1569 Кбит/сек
Аудио 1: AC-3, 48,0 КГц, 192 Кбит/сек, 2 канала (многоголосый Первый канал)
Аудио 2: AC-3, 48,0 КГц, 192 Кбит/сек, 2 канала (английская оригинальная дорожка)

MediaInfo

Общее
Полное имя : Выдуманная жизнь Эбботов.1997.HDTVRip.avi
Формат : AVI
Формат/Информация : Audio Video Interleave
Размер файла : 1,47 Гбайт
Продолжительность : 1 ч. 46 м.
Общий поток : 1967 Кбит/сек
Название фильма : Выдуманная жизнь Эбботов / Inverting the Abbotts / 1997 / HDTVRip /
Дата записи : 14.10.2015
Программа кодирования : VirtualDubModRus 1.5.10.2 (build 2542/release)
Библиотека кодирования : VirtualDubMod build 2542/release
Авторское право : mister55555
Примечание : для rutracker.org
Видео
Идентификатор : 0
Формат : MPEG-4 Visual
Профиль формата : Advanced Simple@L5
Параметр BVOP формата : 2
Параметр QPel формата : Нет
Параметр GMC формата : Без точки перехода
Параметр матрицы формата : Выборочная
Идентификатор кодека : XVID
Идентификатор кодека/Подсказка : XviD
Продолжительность : 1 ч. 46 м.
Битрейт : 1569 Кбит/сек
Ширина : 720 пикселей
Высота : 400 пикселей
Соотношение сторон : 16:9
Частота кадров : 23,976 кадра/сек
Цветовое пространство : YUV
Субдискретизация насыщенности : 4:2:0
Битовая глубина : 8 бит
Тип развёртки : Прогрессивная
Метод сжатия : С потерями
Бит/(Пиксели*Кадры) : 0.227
Размер потока : 1,17 Гбайт (80%)
Библиотека кодирования : XviD 73
Аудио #1
Идентификатор : 1
Формат : AC-3
Формат/Информация : Audio Coding 3
Расширение режима : CM (complete main)
Параметр Endianness формата : Big
Идентификатор кодека : 2000
Продолжительность : 1 ч. 46 м.
Вид битрейта : Постоянный
Битрейт : 192 Кбит/сек
Каналы : 2 канала
Расположение каналов : Front: L R
Частота : 48,0 КГц
Метод сжатия : С потерями
Размер потока : 147 Мбайт (10%)
Выравнивание : Разделение по промежуткам
Продолжительность промежутка : 42 мс. (1,00 видеокадр)
Время предзагрузки промежутка : 500 мс.
Заголовок : многоголосый Первый канал
Аудио #2
Идентификатор : 2
Формат : AC-3
Формат/Информация : Audio Coding 3
Расширение режима : CM (complete main)
Параметр Endianness формата : Big
Идентификатор кодека : 2000
Продолжительность : 1 ч. 46 м.
Вид битрейта : Постоянный
Битрейт : 192 Кбит/сек
Каналы : 2 канала
Расположение каналов : Front: L R
Частота : 48,0 КГц
Метод сжатия : С потерями
Размер потока : 147 Мбайт (10%)
Выравнивание : Разделение по промежуткам
Продолжительность промежутка : 42 мс. (1,00 видеокадр)
Время предзагрузки промежутка : 500 мс.
Заголовок : оригинал

Скриншоты

To download the content you need:
1. Download and install torrent client [for Windows] or for mobile system
2. Click on [Download]
Attention.
If the test YOU are NOT a ROBOT - does not work, then You are using an outdated browser.
Install the current browser and click on [Download]

Do not work with Yandex browser. Uploading files to them is erroneous.
Security: torrent client is allowed by Kaspersky.

[en.asmlocator.ru].t4694.torrent 
Torrent: Registered [ 2015-12-02 05:40 ] · 27ED102F3D293612F5CCEF7E4DCAE6BB80F826DB

Download .torrent

Download

15 KB

Status: checked
Completed: 1 times
Size: 1.47 GB
terms.php
[Profile] [PM]
Display posts:    
Reply to topic

Current time is: 05-Apr 02:54

All times are UTC ± 0



You cannot post new topics in this forum
You cannot reply to topics in this forum
You cannot edit your posts in this forum
You cannot delete your posts in this forum
You cannot vote in polls in this forum
You cannot attach files in this forum
You can download files in this forum
Верим фактам, а не вранью Путина! Факт, что Правительство ведёт Россию к истреблению.
Так как численность населения падает, даже не смотря на приток эмигрантов!
Русская нация вымирает и вырождается, смешиваясь с эмигрантами!
Факт, что военных и граждан предприятий заставляют голосовать за партию Единая Россия и Путина
ПОД СТРАХОМ УВОЛЬНЕНИЯ!
Нам не нужно Правительство, блокирующее личную жизнь, интернет, нарушающее сохранность данных.
Все эти действия финансируются за счёт народа!