Ожог (Борис Шадурский) [1998, Беларусь, криминальная драма, TVRip] Original (Rus)

Reply to topic
DL-List and Torrent activity
Size:  745 MB   |    Registered:  4 years 3 months   |    Completed:  0 times

Seeder not seen: 5 months 11 days

 
   
 
 
Author Message

star21 ®

Gender: Female

Longevity: 4 years 4 months

Posts: 551945

Location: Екатеринбург

Post 02-Dec-2015 05:40

[Quote]

Ожог Страна: Беларусь .
Жанр: криминальная драма.
Год выпуска: 1998.
Продолжительность: 01:05:01.
Язык: русский.
Cубтитры: нет.
Режиссер: Борис Шадурский.
В ролях:
Владимир Стеклов, Владимир Тяглов, Артем Иванов, Роман Романов, Олег Шкловский, Владимир Мищанчук, Иван Мацкевич, Андрей Бубашкин, Александр Тимошкин, Анна Казючиц, Олег Гончаренок, Роман Лужков, Ю. Чембрович, Ю. Коляда, Л. Францевич, Владимир Ковалёв, Арина Ястреб.
Описание:
По мотивам документальной повести Валерия Сороки «Спасите наши души».
Прокурор Ажогин, отправивший в тюрьму не одного преступника, волею судьбы сам оказывается за решеткой. Героя помещают в камеру к малолетним нарушителям закона. Ситуация, согласитесь, не самая страшная. Так думает и герой, ставший, в итоге, настоящим другом и наставником четырнадцатилетних сокамерников...

Доп. информация:
Выпущено: Министерство культуры и печати РБ, Беларусьфильм.
Автор сценария: Федор Конев.
Оператор: Анастасия Суханова.
Композитор: Родион Глебов.
Художник: Владимир Ковалёв.
Награды и номинации:
• 1999 - Приз «Бронзовый Витязь» VIII МКФ «Золотой Витязь-99»: конкурс игровых фильмов.

Релиз
Рип sharky.

Качество видео: TVRip
Формат видео: AVI
Видео: 704x528 (1.33:1), 25 fps, DivX Codec 4.x ~1465 kbps avg, 0.16 bit/pixel
Аудио: 48 kHz, MPEG Layer 3, 2 ch, ~128.00 kbps avg

MediaInfo

General
Complete name : Ozhog.1998.DivX.TVRip.fenixclub.avi
Format : AVI
Format/Info : Audio Video Interleave
File size : 745 MiB
Duration : 1h 5mn
Overall bit rate : 1 603 Kbps
Video
ID : 0
Format : MPEG-4 Visual
Format settings, BVOP : 1
Format settings, QPel : No
Format settings, GMC : No warppoints
Format settings, Matrix : Default (H.263)
Codec ID : DX50
Codec ID/Hint : DivX 5
Duration : 1h 5mn
Bit rate : 1 465 Kbps
Width : 704 pixels
Height : 528 pixels
Display aspect ratio : 4:3
Frame rate : 25.000 fps
Color space : YUV
Chroma subsampling : 4:2:0
Bit depth : 8 bits
Scan type : Progressive
Compression mode : Lossy
Bits/(Pixel*Frame) : 0.158
Stream size : 681 MiB (91%)
Title : Video
Writing library : DivX 3013
Audio
ID : 1
Format : MPEG Audio
Format version : Version 1
Format profile : Layer 3
Codec ID : 55
Codec ID/Hint : MP3
Duration : 1h 5mn
Bit rate mode : Constant
Bit rate : 128 Kbps
Channel(s) : 2 channels
Sampling rate : 48.0 KHz
Compression mode : Lossy
Stream size : 59.5 MiB (8%)
Alignment : Split accross interleaves
Interleave, duration : 40 ms (1.00 video frame)
Interleave, preload duratio : 500 ms
Title : Audio

Скриншоты


Альтернативный хост


To download the content you need:
1. Download and install torrent client [for Windows] or for mobile system
2. Click on [Download]
Attention.
If the test YOU are NOT a ROBOT - does not work, then You are using an outdated browser.
Install the current browser and click on [Download]

Do not work with Yandex browser. Uploading files to them is erroneous.
Security: torrent client is allowed by Kaspersky.

[en.asmlocator.ru].t4692.torrent 
Torrent: Registered [ 2015-12-02 05:40 ] · 44382AF9EBAFE22202A7272F1240F210EC1567D7

Download .torrent

Download

15 KB

Status: checked
Completed: 0 times
Size: 745 MB
terms.php
[Profile] [PM]
Display posts:    
Reply to topic

Current time is: 31-Mar 16:50

All times are UTC ± 0



You cannot post new topics in this forum
You cannot reply to topics in this forum
You cannot edit your posts in this forum
You cannot delete your posts in this forum
You cannot vote in polls in this forum
You cannot attach files in this forum
You can download files in this forum
Верим фактам, а не вранью Путина! Факт, что Правительство ведёт Россию к истреблению.
Так как численность населения падает, даже не смотря на приток эмигрантов!
Русская нация вымирает и вырождается, смешиваясь с эмигрантами!
Факт, что военных и граждан предприятий заставляют голосовать за партию Единая Россия и Путина
ПОД СТРАХОМ УВОЛЬНЕНИЯ!
Нам не нужно Правительство, блокирующее личную жизнь, интернет, нарушающее сохранность данных.
Все эти действия финансируются за счёт народа!