Франкенштейн / Франкенштейн Мэри Шелли / Frankenstein / Mary Shelley\'s Frankenstein (Кеннет Брэна / Kenneth Branagh) [1994, США, Япония, Великобритания, Ужасы, фантастика, мелодрама, драма, BDRip] AVO (А.Гаврилов) + AVO (Ю.Сербин)

Reply to topic
DL-List and Torrent activity
Size:  2.18 GB   |    Registered:  4 years 4 months   |    Completed:  0 times

Seeder not seen: 1 year 1 month

 
   
 
 
Author Message

star21 ®

Gender: Female

Longevity: 4 years 5 months

Posts: 551945

Location: Екатеринбург

Post 02-Dec-2015 05:40

[Quote]

Франкенштейн / Франкенштейн Мэри Шелли / Frankenstein / Mary Shelley's Frankenstein
Страна: США, Япония, Великобритания
Жанр: Ужасы, фантастика, мелодрама, драма
Год выпуска: 1994
Продолжительность: 02:03:10
Перевод: Авторский (одноголосый закадровый) А.Гаврилов
Перевод 2: Авторский (одноголосый закадровый) Ю.Сербин
Cубтитры: нет
Режиссер: Кеннет Брэна / Kenneth Branagh
В ролях: Роберт Де Ниро, Кеннет Брана, Хелена Бонэм Картер, Том Халс, Эйдан Куинн, Джон Клиз, Иэн Холм, Ричард Брайерс, Роберт Харди, Шери Лунги, Селия Имри, Тревин МакДауэлл, Марк Хэдфилд...
Описание: Этот фильм — экранизация знаменитого готического романа Мэри Шелли о чудовище, созданном гениальным доктором Франкенштейном, признана критиками самой страшной из всех киноверсий книги. Продюсер фильма Френсис Коппола и режиссер Кеннет Брана, признанные мастера жанра создали по-настоящему гипнотическое зрелище о похождениях ужасного монстра, в роли которого выступил Роберт Де Ниро, еще раз продемонстрировавший свой уникальный дар — завораживать зрителей и заставлять трепетать от страха их сердца...
Сэмпл: https://yadi.sk/i/tUAoB_Y0jmdbw
Качество видео: BDRip [Видеряд от HQCLUB - источник: HDCLUB / Blu-Ray / 1080р) ]
Формат видео: AVI
Видео: 704x384 (1.83:1), 23.976 fps, XviD build 65 ~1891 kbps avg, 0.29 bit/pixel
Аудио: 48 kHz, AC3 Dolby Digital, 3/2 (L,C,R,l,r) + LFE ch, ~448 kbps Гаврилов
Аудио 2: 48 kHz, AC3 Dolby Digital, 2/0 (L,R) ch, ~192 kbps Сербин

MediaInfo

Франкенштейн - Frankenshtejn.1994 [by Edich2].avi
Format : AVI
Format/Info : Audio Video Interleave
Format profile : OpenDML
File size : 2.18 GiB
Duration : 2h 3mn
Overall bit rate : 2 538 Kbps
Movie name : Франкенштейн / Франкенштейн Мэри Шелли / Frankenstein (1994) BDRip
Director : yaroslaigor
Genre : ужасы, фантастика, драма
Writing application : VirtualDubMod 1.5.10.2 (build 2540/release)
Copyright : Edich2
Comment : RuTracker.org
Video
ID : 0
Format : MPEG-4 Visual
Format profile : Advanced Simple@L5
Format settings, BVOP : 1
Format settings, QPel : No
Format settings, GMC : No warppoints
Format settings, Matrix : Custom
Codec ID : XVID
Codec ID/Hint : XviD
Duration : 2h 3mn
Bit rate : 1 880 Kbps
Width : 704 pixels
Height : 384 pixels
Display aspect ratio : 1.85:1
Frame rate : 23.976 fps
Color space : YUV
Chroma subsampling : 4:2:0
Bit depth : 8 bits
Scan type : Progressive
Compression mode : Lossy
Bits/(Pixel*Frame) : 0.290
Stream size : 1.62 GiB (74%)
Writing library : XviD 65
Audio #1
ID : 1
Format : AC-3
Format/Info : Audio Coding 3
Mode extension : CM (complete main)
Format settings, Endianness : Big
Codec ID : 2000
Duration : 2h 3mn
Bit rate mode : Constant
Bit rate : 448 Kbps
Channel(s) : 6 channels
Channel positions : Front: L C R, Side: L R, LFE
Sampling rate : 48.0 KHz
Bit depth : 16 bits
Compression mode : Lossy
Stream size : 395 MiB (18%)
Alignment : Split accross interleaves
Interleave, duration : 42 ms (1.00 video frame)
Interleave, preload duration : 500 ms
Audio #2
ID : 2
Format : AC-3
Format/Info : Audio Coding 3
Mode extension : CM (complete main)
Format settings, Endianness : Big
Codec ID : 2000
Duration : 2h 3mn
Bit rate mode : Constant
Bit rate : 192 Kbps
Channel(s) : 2 channels
Channel positions : Front: L R
Sampling rate : 48.0 KHz
Bit depth : 16 bits
Compression mode : Lossy
Stream size : 169 MiB (8%)
Alignment : Split accross interleaves
Interleave, duration : 42 ms (1.00 video frame)
Interleave, preload duration : 500 ms

Скриншоты


To download the content you need:
1. Download and install torrent client [for Windows] or for mobile system
2. Click on [Download]
Attention.
If the test YOU are NOT a ROBOT - does not work, then You are using an outdated browser.
Install the current browser and click on [Download]

Do not work with Yandex browser. Uploading files to them is erroneous.
Security: torrent client is allowed by Kaspersky.

[en.asmlocator.ru].t4691.torrent 
Torrent: Registered [ 2015-12-02 05:40 ] · 7D21CB8E9B8B288DFAC1B020A0000D158D763D95

Download .torrent

Download

11 KB

Status: checked
Completed: 0 times
Size: 2.18 GB
terms.php
[Profile] [PM]
Display posts:    
Reply to topic

Current time is: 10-Apr 10:08

All times are UTC ± 0



You cannot post new topics in this forum
You cannot reply to topics in this forum
You cannot edit your posts in this forum
You cannot delete your posts in this forum
You cannot vote in polls in this forum
You cannot attach files in this forum
You can download files in this forum
Верим фактам, а не вранью Путина! Факт, что Правительство ведёт Россию к истреблению.
Так как численность населения падает, даже не смотря на приток эмигрантов!
Русская нация вымирает и вырождается, смешиваясь с эмигрантами!
Факт, что военных и граждан предприятий заставляют голосовать за партию Единая Россия и Путина
ПОД СТРАХОМ УВОЛЬНЕНИЯ!
Нам не нужно Правительство, блокирующее личную жизнь, интернет, нарушающее сохранность данных.
Все эти действия финансируются за счёт народа!