Компьютер в кроссовках / Компьютер в кедах / The Computer Wore Tennis Shoes (Пейтон Рид / Peyton Reed) [1995, США, фантастика, комедия, семейный, TVRip] MVO

Reply to topic
DL-List and Torrent activity
Size:  1.37 GB   |    Registered:  4 years 4 months   |    Completed:  0 times

Seeder not seen: 2 years

 
   
 
 
Author Message

star21 ®

Gender: Female

Longevity: 4 years 4 months

Posts: 551945

Location: Екатеринбург

Post 02-Dec-2015 05:40

[Quote]

Компьютер в кроссовках / Компьютер в кедах / The Computer Wore Tennis Shoes
Страна: США
Жанр: фантастика, комедия, семейный
Год выпуска: 1995
Продолжительность: 01:27:20
Перевод: Профессиональный (многоголосый закадровый)
Cубтитры: нет
Режиссер: Пейтон Рид / Peyton Reed
В ролях: Кирк Кэмерон
Ларри Миллер
Джейсон Бернард
Эндрю Вудворт
Энн Тремко
Мэттью МакКерли
Джефф Мэйнард
Чарльз Лэйн
Пол Дули
Дэн Кастелланета
Описание: Во время грозы происходит короткое замыкание, и симпатичный лоботряс Декстер Райли, пытающийся извлечь из памяти компьютера чужую курсовую работу, в одно мгновение становится гением, обладающим всей информацией суперкомпьютера нового поколения.
Грех не воспользоваться новым даром, и Декстер решает в первую очередь проучить заносчивых всезнаек-отличников, которые всегда относились к нему с презрением…
Доп. информация: За столь редкий фильм благодарим хорошего человека под ником SuperDVD01
ФИЛЬМ ИЗ РУБРИКИ ДИСНЕЙ ПО ПЯТНИЦАМ

Релиз
Сэмпл: https://yadi.sk/i/7M_CwIGTjnHbx
Качество видео: TVRip
Формат видео: AVI
Видео: 512x384 (1.33:1), 25 fps, XviD build 50 ~2039 kbps avg, 0.41 bit/pixel
Аудио: 48 kHz, AC3 Dolby Digital, 2/0 (L,R) ch, ~192 kbps

MediaInfo

Компьютер был в кедах - The Computer Wore Tennis Shoes [by Edich2].avi
Format : AVI
Format/Info : Audio Video Interleave
File size : 1.37 GiB
Duration : 1h 27mn
Overall bit rate : 2 242 Kbps
Movie name : Компьютер был в кедах - The Computer Wore Tennis Shoes [by Edich2]
Director : by Edich2
Writing application : VirtualDubMod 1.5.10.3 | www.virtualdub-fr.org || (build 2550/release)
Comment : RuTracker.org
Video
ID : 0
Format : MPEG-4 Visual
Format profile : Advanced Simple@L5
Format settings, BVOP : 1
Format settings, QPel : No
Format settings, GMC : No warppoints
Format settings, Matrix : Default (MPEG)
Codec ID : XVID
Codec ID/Hint : XviD
Duration : 1h 27mn
Bit rate : 2 040 Kbps
Width : 512 pixels
Height : 384 pixels
Display aspect ratio : 4:3
Frame rate : 25.000 fps
Color space : YUV
Chroma subsampling : 4:2:0
Bit depth : 8 bits
Scan type : Progressive
Compression mode : Lossy
Bits/(Pixel*Frame) : 0.415
Stream size : 1.24 GiB (91%)
Writing library : XviD 1.2.1 (UTC 2008-12-04)
Audio
ID : 1
Format : AC-3
Format/Info : Audio Coding 3
Mode extension : CM (complete main)
Format settings, Endianness : Big
Codec ID : 2000
Duration : 1h 27mn
Bit rate mode : Constant
Bit rate : 192 Kbps
Channel(s) : 2 channels
Channel positions : Front: L R
Sampling rate : 48.0 KHz
Bit depth : 16 bits
Compression mode : Lossy
Stream size : 120 MiB (9%)
Alignment : Split accross interleaves
Interleave, duration : 40 ms (1.00 video frame)
Interleave, preload duration : 500 ms

Скриншоты

To download the content you need:
1. Download and install torrent client [for Windows] or for mobile system
2. Click on [Download]
Attention.
If the test YOU are NOT a ROBOT - does not work, then You are using an outdated browser.
Install the current browser and click on [Download]

Do not work with Yandex browser. Uploading files to them is erroneous.
Security: torrent client is allowed by Kaspersky.

[en.asmlocator.ru].t4690.torrent 
Torrent: Registered [ 2015-12-02 05:40 ] · 9451F6B13BB2BB0D9DBB025417F0D927C10139D5

Download .torrent

Download

14 KB

Status: checked
Completed: 0 times
Size: 1.37 GB
terms.php
[Profile] [PM]
Display posts:    
Reply to topic

Current time is: 04-Apr 14:16

All times are UTC ± 0



You cannot post new topics in this forum
You cannot reply to topics in this forum
You cannot edit your posts in this forum
You cannot delete your posts in this forum
You cannot vote in polls in this forum
You cannot attach files in this forum
You can download files in this forum
Верим фактам, а не вранью Путина! Факт, что Правительство ведёт Россию к истреблению.
Так как численность населения падает, даже не смотря на приток эмигрантов!
Русская нация вымирает и вырождается, смешиваясь с эмигрантами!
Факт, что военных и граждан предприятий заставляют голосовать за партию Единая Россия и Путина
ПОД СТРАХОМ УВОЛЬНЕНИЯ!
Нам не нужно Правительство, блокирующее личную жизнь, интернет, нарушающее сохранность данных.
Все эти действия финансируются за счёт народа!