Бродяга / The Vagrant (Крис Уолэс / Chris Walas) [1992, Франция, США, Ужасы, триллер, комедия, VHSRip] [FullScreen] AVO (Андрей Гаврилов)

Reply to topic
DL-List and Torrent activity
Size:  1.37 GB   |    Registered:  4 years 4 months   |    Completed:  0 times

Seeder not seen: Never

 
   
 
 
Author Message

star21 ®

Gender: Female

Longevity: 4 years 4 months

Posts: 551945

Location: Екатеринбург

Post 02-Dec-2015 05:40

[Quote]

Бродяга / The Vagrant
[FullScreen]
Страна: Франция, США
Жанр: Ужасы, триллер, комедия
Год выпуска: 1992
Продолжительность: 01:31:26
Перевод: Авторский (одноголосый закадровый) Андрей Гаврилов
Cубтитры: нет
Режиссер: Крис Уолэс / Chris Walas
В ролях: Билл Пэкстон, Майкл Айронсайд, Маршалл Белл, Митци Кэптчер, Коллин Кэмп, Пэтрика Дарбо, Марк МакКлюр, Стюарт Пэнкин, Тедди Уилсон, Дерек Марк Лохран, Милдред Брайон, Бретт Марстон, Кен Лав, Кэтерин Госни, Стив Гейтс
Описание: Неплохой ужастик с элементами черного юмора. Грэм Краковски (Пэкстон), тихий и скромный менеджер, покупает дом, а вместе с ним и целую кучу неприятностей. Рядом с домом обитает отвратительный бродяга. Он постоянно пробирается в дом, а потом начинаются убийства, в которых детектив (Айронсайд) обвиняет Грэма. Суд оправдал насчастного, который уже начал верить, что сам совершает убийства во сне. Он решил уехать и устроился менеджером захолустного мотеля, но бродяга последовал за ним и состоялось еще одно убийство. Парень, доведенный до отчаяния, забывает о своей скромности и переходит в наступление. (Иванов М.)
Доп. информация: Оцифровка VHS (личный архив) и получение VHSRip alenavova
Эксклюзив для rutracker.org. При размещении данного релиза на других сайтах ссылка на автора alenavova обязательна.

Релиз
Сэмпл: https://yadi.sk/i/vnm5ScTIjnrym
Качество видео: VHSRip
Формат видео: AVI
Видео: 704x528 (1.33:1), 25 fps, XviD build 50 ~1939 kbps avg, 0.21 bit/pixel
Аудио: 48 kHz, AC3 Dolby Digital, 2/0 (L,R) ch, ~192 kbps

MediaInfo

Бродяга - The Vagrant (by alenavova).avi
Format : AVI
Format/Info : Audio Video Interleave
File size : 1.37 GiB
Duration : 1h 31mn
Overall bit rate : 2 141 Kbps
Movie name : Бродяга - The Vagrant (by alenavova)
Director : by alenavova
Writing application : VirtualDubMod 1.5.10.3 | www.virtualdub-fr.org || (build 2550/release)
Copyright : Edich2
Comment : RuTracker.org
Video
ID : 0
Format : MPEG-4 Visual
Format profile : Advanced Simple@L5
Format settings, BVOP : 1
Format settings, QPel : No
Format settings, GMC : No warppoints
Format settings, Matrix : Default (MPEG)
Codec ID : XVID
Codec ID/Hint : XviD
Duration : 1h 31mn
Bit rate : 1 940 Kbps
Width : 704 pixels
Height : 528 pixels
Display aspect ratio : 4:3
Frame rate : 25.000 fps
Color space : YUV
Chroma subsampling : 4:2:0
Bit depth : 8 bits
Scan type : Progressive
Compression mode : Lossy
Bits/(Pixel*Frame) : 0.209
Stream size : 1.24 GiB (91%)
Writing library : XviD 1.2.1 (UTC 2008-12-04)
Audio
ID : 1
Format : AC-3
Format/Info : Audio Coding 3
Mode extension : CM (complete main)
Format settings, Endianness : Big
Codec ID : 2000
Duration : 1h 31mn
Bit rate mode : Constant
Bit rate : 192 Kbps
Channel(s) : 2 channels
Channel positions : Front: L R
Sampling rate : 48.0 KHz
Bit depth : 16 bits
Compression mode : Lossy
Stream size : 126 MiB (9%)
Alignment : Split accross interleaves
Interleave, duration : 40 ms (1.00 video frame)
Interleave, preload duration : 500 ms

To download the content you need:
1. Download and install torrent client [for Windows] or for mobile system
2. Click on [Download]
Attention.
If the test YOU are NOT a ROBOT - does not work, then You are using an outdated browser.
Install the current browser and click on [Download]

Do not work with Yandex browser. Uploading files to them is erroneous.
Security: torrent client is allowed by Kaspersky.

[en.asmlocator.ru].t4687.torrent 
Torrent: Registered [ 2015-12-02 05:40 ] · 5E6AD8D340B4A80CBE942D78826803EBC404AD4B

Download .torrent

Download

14 KB

Status: checked
Completed: 0 times
Size: 1.37 GB
terms.php
[Profile] [PM]
Display posts:    
Reply to topic

Current time is: 04-Apr 15:09

All times are UTC ± 0



You cannot post new topics in this forum
You cannot reply to topics in this forum
You cannot edit your posts in this forum
You cannot delete your posts in this forum
You cannot vote in polls in this forum
You cannot attach files in this forum
You can download files in this forum
Верим фактам, а не вранью Путина! Факт, что Правительство ведёт Россию к истреблению.
Так как численность населения падает, даже не смотря на приток эмигрантов!
Русская нация вымирает и вырождается, смешиваясь с эмигрантами!
Факт, что военных и граждан предприятий заставляют голосовать за партию Единая Россия и Путина
ПОД СТРАХОМ УВОЛЬНЕНИЯ!
Нам не нужно Правительство, блокирующее личную жизнь, интернет, нарушающее сохранность данных.
Все эти действия финансируются за счёт народа!