На вилле / Up at the Villa (Филип Хаас / Philip Haas) [2000, США, Мелодрама, DVDRip] MVO + Original Eng

Reply to topic
DL-List and Torrent activity
Size:  1.47 GB   |    Registered:  4 years 4 months   |    Completed:  2 times

Seeder not seen: 5 months 14 days

 
   
 
 
Author Message

star21 ®

Gender: Female

Longevity: 4 years 4 months

Posts: 551945

Location: Екатеринбург

Post 02-Dec-2015 05:40

[Quote]

На вилле / Up at the Villa
по одноименной повести С.Моэма
Страна: США
Жанр: Мелодрама
Год выпуска: 2000
Продолжительность: 1:50:23
Перевод: Профессиональный (многоголосый закадровый)
Cубтитры: нет
Оригинальная аудиодорожка: английский
Режиссер: Филип Хаас / Philip Haas
В ролях: Кристин Скотт Томас, Шон Пенн, Энн Бэнкрофт, Джереми Дэйвис, Дерек Джекоби, Джеймс Фокс, Дадли Саттон, Массимо Джини
Описание: Английская аристократка Мэри Пэнтон пытается укрыться во Флоренции от мрачных, неприятных воспоминаний о погибшем муже. Дело происходит в 1938-ом году, по всей Италии маршируют чернорубашечники, и вскоре англичанам, которые предпочли своей унылой родине флорентийские солнечные ванны, на собственной шкуре придётся испытать железный кулак новой власти. Кружевной, воздушный, лучезарный и бессмысленный аристократический мирок готова снести под корень неумолимая, тупая сила. Пока Мэри размышляет, вручить ли собственную жизнь сэру Эдгару Свифту, дипломату, будущему губернатору Бенгалии, судьба сталкивает её ещё с двумя мужчинами. Первый — ловкий американец-сердцеед Роули Флинт, объезжающий богатых перезрелых дамочек. Второй — бедный студент, австрийский беженец от аншлюса с гитлеровской Германией Карл Рихтер.
Доп. информация: Русская дорожка взята здесь (спасибо lyonnaise) и немного отремонтирована.
Кстати, не советую читать там описание и комменты - там описано 90% фильма.
Сэмпл: http://multi-up.com/1071707
Качество видео: DVDRip
Формат видео: AVI
Видео: Xvid, 640x480 (1.33:1), 25.000 fps, 1640 kb/s
Аудио: Русский, MPEG-1 Layer 3, 48000 Hz, 128 kb/s, mono 2 ch., CBR
Аудио 2: English, MPEG-1 Layer 3, 48000 Hz, 128 kb/s, stereo, CBR

MediaInfo

Общее
Полное имя : D:\NaVille\Up at the Villa [2000].avi
Формат : AVI
Формат/Информация : Audio Video Interleave
Размер файла : 1,47 Гбайт
Продолжительность : 1 ч. 50 м.
Общий поток : 1910 Кбит/сек
Программа кодирования : VirtualDubMod 1.5.10.2 (build 2540/release)
Библиотека кодирования : VirtualDubMod build 2540/release
Видео
Идентификатор : 0
Формат : MPEG-4 Visual
Профиль формата : Advanced Simple@L5
Параметр BVOP формата : 1
Параметр QPel формата : Нет
Параметр GMC формата : Без точки перехода
Параметр матрицы формата : Default (MPEG)
Идентификатор кодека : DX50
Идентификатор кодека/Подсказка : DivX 5
Продолжительность : 1 ч. 50 м.
Битрейт : 1640 Кбит/сек
Ширина : 640 пикселей
Высота : 480 пикселей
Соотношение сторон : 4:3
Частота кадров : 25,000 кадров/сек
Цветовое пространство : YUV
Субдискретизация насыщенности : 4:2:0
Битовая глубина : 8 бит
Тип развёртки : Прогрессивная
Метод сжатия : С потерями
Бит/(Пиксели*Кадры) : 0.214
Размер потока : 1,26 Гбайт (86%)
Библиотека кодирования : XviD 1.2.1 (UTC 2008-12-04)
Аудио #1
Идентификатор : 1
Формат : MPEG Audio
Версия формата : Version 1
Профиль формата : Layer 3
Идентификатор кодека : 55
Идентификатор кодека/Подсказка : MP3
Продолжительность : 1 ч. 50 м.
Вид битрейта : Постоянный
Битрейт : 128 Кбит/сек
Каналы : 2 канала
Частота : 48,0 КГц
Метод сжатия : С потерями
Размер потока : 101 Мбайт (7%)
Выравнивание : Соединение по промежуткам
Продолжительность промежутка : 40 мс. (1,00 видеокадр)
Время предзагрузки промежутка : 504 мс.
Аудио #2
Идентификатор : 2
Формат : MPEG Audio
Версия формата : Version 1
Профиль формата : Layer 3
Идентификатор кодека : 55
Идентификатор кодека/Подсказка : MP3
Продолжительность : 1 ч. 50 м.
Вид битрейта : Постоянный
Битрейт : 128 Кбит/сек
Каналы : 2 канала
Частота : 48,0 КГц
Метод сжатия : С потерями
Размер потока : 101 Мбайт (7%)
Выравнивание : Соединение по промежуткам
Продолжительность промежутка : 40 мс. (1,00 видеокадр)
Время предзагрузки промежутка : 504 мс.
Библиотека кодирования : LAME3.99r
Настройки программы : -m s -V 4 -q 2 -lowpass 17 -b 128

Скриншот c названием фильма

Скриншоты

Сравнение

с показывает, что в разных частях фильма кадр ведёт себя по-разному (там - 16:9).
http://screenshotcomparison.com/comparison.php?id=147209
1 сравнение. В моей раздаче кадр обрезан по бокам, в старой раздаче - сверху и снизу.
2 сравнение. В моей раздаче кадр обрезан по бокам, в старой раздаче - снизу.
3 сравнение. В моей раздаче кадр не обрезан, в старой раздаче - сверху и снизу.

To download the content you need:
1. Download and install torrent client [for Windows] or for mobile system
2. Click on [Download]
Attention.
If the test YOU are NOT a ROBOT - does not work, then You are using an outdated browser.
Install the current browser and click on [Download]

Do not work with Yandex browser. Uploading files to them is erroneous.
Security: torrent client is allowed by Kaspersky.

[en.asmlocator.ru].t4685.torrent 
Torrent: Registered [ 2015-12-02 05:40 ] · F8E509A4DB0CAC2844382F204D03BD3751DD2F4D

Download .torrent

Download

15 KB

Status: checked
Completed: 2 times
Size: 1.47 GB
terms.php
[Profile] [PM]
Display posts:    
Reply to topic

Current time is: 03-Apr 03:20

All times are UTC ± 0



You cannot post new topics in this forum
You cannot reply to topics in this forum
You cannot edit your posts in this forum
You cannot delete your posts in this forum
You cannot vote in polls in this forum
You cannot attach files in this forum
You can download files in this forum
Верим фактам, а не вранью Путина! Факт, что Правительство ведёт Россию к истреблению.
Так как численность населения падает, даже не смотря на приток эмигрантов!
Русская нация вымирает и вырождается, смешиваясь с эмигрантами!
Факт, что военных и граждан предприятий заставляют голосовать за партию Единая Россия и Путина
ПОД СТРАХОМ УВОЛЬНЕНИЯ!
Нам не нужно Правительство, блокирующее личную жизнь, интернет, нарушающее сохранность данных.
Все эти действия финансируются за счёт народа!