Орбита смерти / Смертельная орбита / Lethal Orbit (Улли Ломмель / Ulli Lommel) [1996, США, фантастика, DVDRip] MVO

Reply to topic
DL-List and Torrent activity
Size:  1.44 GB   |    Registered:  4 years 4 months   |    Completed:  0 times

Seeder not seen: Never

 
   
 
 
Author Message

star21 ®

Gender: Female

Longevity: 4 years 4 months

Posts: 551945

Location: Екатеринбург

Post 02-Dec-2015 05:40

[Quote]

Орбита смерти / Смертельная орбита / Lethal Orbit
Страна: США
Жанр: фантастика
Год выпуска: 1996
Продолжительность: 01:24:30
Перевод: Профессиональный (многоголосый закадровый)
Cубтитры: нет
Режиссер: Улли Ломмель / Ulli Lommel
В ролях: Каспер Ван Дин
Бентли Митчэм
Джо Эстевес
Ян-Майкл Винсент
Кристофер Митчум
Рон Роббинс
Кэрри Митчем
Ник Уайлдер
Дэвид Жан Томас
Бонни Лапьер
Описание: В бескрайних космических просторах терпит аварию орбитальная станция. Маньяк, решивший свести счеты со всем миром, запустил компьютерный вирус в систему управления полетом. Откуда придет помощь к людям, которые оказались на пороге между жизнью и смертью?.
Доп. информация: За этот редкий фильм благодарим хорошего человека под ником SuperDVD01
Релиз
Сэмпл: https://yadi.sk/i/kWNTRDJXjokYc
Качество видео: DVDRip
Формат видео: AVI
Видео: 512x384 (1.33:1), 25 fps, DivX MPEG-4 ~2236 kbps avg, 0.46 bit/pixel
Аудио: 48 kHz, AC3 Dolby Digital, 2/0 (L,R) ch, ~192 kbps

MediaInfo

Орбита смерти - Lethal Orbit [by Edich2].avi
Format : AVI
Format/Info : Audio Video Interleave
File size : 1.44 GiB
Duration : 1h 24mn
Overall bit rate : 2 438 Kbps
Movie name : Орбита смерти - Lethal Orbit [by Edich2]
Director : by Edich2
Writing application : VirtualDubMod 1.5.10.2 (build 2540/release)
Comment : RuTracker.org
Video
ID : 0
Format : MPEG-4 Visual
Codec ID : DIV3
Codec ID/Hint : DivX 3 Low
Duration : 1h 24mn
Bit rate : 2 237 Kbps
Width : 512 pixels
Height : 384 pixels
Display aspect ratio : 4:3
Frame rate : 25.000 fps
Color space : YUV
Chroma subsampling : 4:2:0
Bit depth : 8 bits
Compression mode : Lossy
Bits/(Pixel*Frame) : 0.455
Stream size : 1.32 GiB (92%)
Audio
ID : 1
Format : AC-3
Format/Info : Audio Coding 3
Mode extension : CM (complete main)
Format settings, Endianness : Big
Codec ID : 2000
Duration : 1h 24mn
Bit rate mode : Constant
Bit rate : 192 Kbps
Channel(s) : 2 channels
Channel positions : Front: L R
Sampling rate : 48.0 KHz
Bit depth : 16 bits
Compression mode : Lossy
Stream size : 116 MiB (8%)
Alignment : Split accross interleaves
Interleave, duration : 40 ms (1.00 video frame)
Interleave, preload duration : 500 ms

Скриншоты




To download the content you need:
1. Download and install torrent client [for Windows] or for mobile system
2. Click on [Download]
Attention.
If the test YOU are NOT a ROBOT - does not work, then You are using an outdated browser.
Install the current browser and click on [Download]

Do not work with Yandex browser. Uploading files to them is erroneous.
Security: torrent client is allowed by Kaspersky.

[en.asmlocator.ru].t4683.torrent 
Torrent: Registered [ 2015-12-02 05:40 ] · AE706C07A3BB83B1CB2E479D7C2F84A83238360D

Download .torrent

Download

15 KB

Status: checked
Completed: 0 times
Size: 1.44 GB
terms.php
[Profile] [PM]
Display posts:    
Reply to topic

Current time is: 03-Apr 10:50

All times are UTC ± 0



You cannot post new topics in this forum
You cannot reply to topics in this forum
You cannot edit your posts in this forum
You cannot delete your posts in this forum
You cannot vote in polls in this forum
You cannot attach files in this forum
You can download files in this forum
Верим фактам, а не вранью Путина! Факт, что Правительство ведёт Россию к истреблению.
Так как численность населения падает, даже не смотря на приток эмигрантов!
Русская нация вымирает и вырождается, смешиваясь с эмигрантами!
Факт, что военных и граждан предприятий заставляют голосовать за партию Единая Россия и Путина
ПОД СТРАХОМ УВОЛЬНЕНИЯ!
Нам не нужно Правительство, блокирующее личную жизнь, интернет, нарушающее сохранность данных.
Все эти действия финансируются за счёт народа!