Давилка / The Mangler [Полная Версия / Unrated Version] (Тоуб Хупер / Tobe Hooper) [1995, США, Австралия, ЮАР, ужасы, фантастика, триллер, комедия, DVDRip] DVO (Екатеринбург Арт)

Reply to topic
DL-List and Torrent activity
Size:  1.43 GB   |    Registered:  4 years 4 months   |    Completed:  0 times

Seeder not seen: 1 year 9 months

 
   
 
 
Author Message

star21 ®

Gender: Female

Longevity: 4 years 5 months

Posts: 551945

Location: Екатеринбург

Post 02-Dec-2015 05:40

[Quote]

Давилка / The Mangler / Полная Версия / Unrated Version-Фредди из "Кошмара на Улице Вязов"
в новом ужастике режиссёра "Полтергейста"
по рассказу СТИВЕНА КИНГА!
- Год выпуска: 1995
Страна: США, Австралия, ЮАР
Жанр: ужасы, фантастика, триллер, комедия
Продолжительность: 01:41:23
Перевод: Профессиональный (двухголосый закадровый) - Екатеринбург Арт
Cубтитры: нет
Режиссер: Тоуб Хупер / Tobe Hooper
В ролях: Роберт Инглунд (William «Bill» Gartley), Тед Левайн (Officer John Hunton), Дэниел Мэтмор (Mark Jackson), Джереми Кратчли (J.J.J. Pictureman / Mortician), Ванесса Пайк (Sherry Ouelette), Деметре Филлипс (George Stanner), Лиза Моррис (Lin Sue), Вера Блэкер (Mrs. Adelle Frawley), Эшли Хейден (Annette Gillian), Дэнни Кеог (Herb Diment)-Мировая премьера: 3 марта 1995-Описание: Бывалый детектив Джон Хаттон вызван расследовать страшные и непонятные события в мрачных стенах старинной прачечной, чьи работники становятся жертвами гигантской гладильной машины. Кажется, что сам демон повелевает древними механизмами, заставляя их перемалывать кости невинных людей. Цинику Джону трудно поверить, что ему противостоят могущественные силы зла, но странное поведение владельца прачечной, загадочного Билла Гэртли, лишь усиливает его подозрение…-Исходник видео: из СГ.-Благодарности:
- собственная оцифровка перевода со своей лицензионной видеокассеты от видео-компании Екатеринбург Арт.
- синхронизация перевода.-На русский язык фильм озвучен студией по заказу компании Екатеринбург Арт.
Текст читают Александр Рахленко и Нина Тобилевич.-Рейтинг

MPAA: R - Лицам до 17 лет обязательно присутствие взрослого.-Качество видео: DVDRip
Формат видео: AVI -> //SAMPLE//
Видео: XviD, 720x400 (16:9), 25.000 fps, 1812 kbps avg
Аудио:
1 - 48 khz, AC3 Dolby Digital, 2/0 (L,R) ch, ~192 kbps [Екатеринбург Арт] VHSRip

Сравнение

Давилка (Екатеринбург Арт) - Сэмпл из моей раздачи
Давилка (Екатеринбург Арт) - Сэмпл (сравнение) из той раздачи
По сравнению с первым сэмплом, во втором (сравнение) отсутствуют некоторые сцены + частично перевод.

MediaInfo

General
Complete name : D:\Торрент Файлы\Будущие Релизы на Трекере\1.35 - 1.46 и более гб\Давилка (Екатеринбург Арт).avi
Format : AVI
Format/Info : Audio Video Interleave
File size : 1.43 GiB
Duration : 1h 41mn
Overall bit rate : 2 014 Kbps
Writing application : VirtualDubMod 1.5.10.3 | www.virtualdub-fr.org || (build 2550/release)
Writing library : VirtualDubMod build 2550/release
Video
ID : 0
Format : MPEG-4 Visual
Format profile : Advanced Simple@L5
Format settings, BVOP : 1
Format settings, QPel : No
Format settings, GMC : No warppoints
Format settings, Matrix : Custom
Codec ID : XVID
Codec ID/Hint : XviD
Duration : 1h 41mn
Bit rate : 1 812 Kbps
Width : 720 pixels
Height : 400 pixels
Display aspect ratio : 16:9
Frame rate : 25.000 fps
Color space : YUV
Chroma subsampling : 4:2:0
Bit depth : 8 bits
Scan type : Progressive
Compression mode : Lossy
Bits/(Pixel*Frame) : 0.252
Stream size : 1.28 GiB (90%)
Writing library : XviD 1.2.1 (UTC 2008-12-04)
Audio
ID : 1
Format : AC-3
Format/Info : Audio Coding 3
Mode extension : CM (complete main)
Format settings, Endianness : Big
Codec ID : 2000
Duration : 1h 41mn
Bit rate mode : Constant
Bit rate : 192 Kbps
Channel(s) : 2 channels
Channel positions : Front: L R
Sampling rate : 48.0 KHz
Compression mode : Lossy
Stream size : 139 MiB (10%)
Alignment : Split accross interleaves
Interleave, duration : 40 ms (1.00 video frame)
Interleave, preload duratio : 500 ms

Скриншот c названием фильма

Скриншоты

To download the content you need:
1. Download and install torrent client [for Windows] or for mobile system
2. Click on [Download]
Attention.
If the test YOU are NOT a ROBOT - does not work, then You are using an outdated browser.
Install the current browser and click on [Download]

Do not work with Yandex browser. Uploading files to them is erroneous.
Security: torrent client is allowed by Kaspersky.

[en.asmlocator.ru].t4681.torrent 
Torrent: Registered [ 2015-12-02 05:40 ] · 21D56A69F7FB97A1C989704217D5084E00C442F3

Download .torrent

Download

15 KB

Status: checked
Completed: 0 times
Size: 1.43 GB
terms.php
[Profile] [PM]
Display posts:    
Reply to topic

Current time is: 08-Apr 01:09

All times are UTC ± 0



You cannot post new topics in this forum
You cannot reply to topics in this forum
You cannot edit your posts in this forum
You cannot delete your posts in this forum
You cannot vote in polls in this forum
You cannot attach files in this forum
You can download files in this forum
Верим фактам, а не вранью Путина! Факт, что Правительство ведёт Россию к истреблению.
Так как численность населения падает, даже не смотря на приток эмигрантов!
Русская нация вымирает и вырождается, смешиваясь с эмигрантами!
Факт, что военных и граждан предприятий заставляют голосовать за партию Единая Россия и Путина
ПОД СТРАХОМ УВОЛЬНЕНИЯ!
Нам не нужно Правительство, блокирующее личную жизнь, интернет, нарушающее сохранность данных.
Все эти действия финансируются за счёт народа!