Кибершторм / Вибрации / Cyberstorm / Vibrations (Майкл Пасернек / Michael Paseornek) [1996, США, Музыкальная драма, DVDRip] AVO (Михаил Иванов)

Reply to topic
DL-List and Torrent activity
Size:  1.46 GB   |    Registered:  4 years 3 months   |    Completed:  1 time

Seeder not seen: 5 months 9 days

 
   
 
 
Author Message

star21 ®

Gender: Female

Longevity: 4 years 4 months

Posts: 551945

Location: Екатеринбург

Post 02-Dec-2015 05:40

[Quote]

Кибершторм / Вибрации / Cyberstorm / Vibrations
Страна: США
Жанр: Музыкальная драма
Год выпуска: 1996
Продолжительность: 01:42:19
Перевод: Авторский (одноголосый закадровый) Михаил Иванов
Cубтитры: нет
Режиссер: Майкл Пасернек / Michael Paseornek
В ролях: Джеймс Маршалл, Кристина Эпплгейт, Фэй Грант, Пейдж Турко, Скотт Коэн, Брюс Олтмен, Дэвид Бурк, Стивен Китс, Virginia Sandifur, Шэйн Баттерворф
Описание: Восходящая рок-звезда Тиджей Крэй по пути на свой самый большой концерт попадает в автокатастрофу. Он остается в живых, но продолжить блистательную карьеру музыканта уже не удастся — его руки навсегда изуродованы. При помощи очаровательной девушки Анамики и ее друзей Крэю удается вновь поверить в себя и изготовить киберпротезы рук. Облачившись в железный костюм, Тиджей вновь выходит на сцену. Но дорогу к славе придется пройти заново, ведь теперь для публики он не милашка Крэй, а человек из стали — таинственный Кибершторм…
Доп. информация: Дорожка с М. Ивановым синхронизирована, ремастерирована и наложена ale_x2008 при помощи Adobe Audition, Sony Vegas и VirtualDubMod.
За оцифрованную с VHS дорожку (VHSRip на тру) благодарим - tanya25, за исходник и активное участие особая благодарность - hexagen

Релиз
Сэмпл: https://yadi.sk/i/95xLx-bIjpqrP
Качество видео: DVDRip
Формат видео: AVI
Видео: 704x400 (1.76:1), 23.976 fps, XviD build 73 ~1846 kbps avg, 0.27 bit/pixel
Аудио: 48 kHz, AC3 Dolby Digital, 2/0 (L,R) ch, ~192 kbps

MediaInfo

Вибрации - Vibrations (by ale_x2008).avi
Format : AVI
Format/Info : Audio Video Interleave
File size : 1.46 GiB
Duration : 1h 42mn
Overall bit rate : 2 048 Kbps
Movie name : Vibrations (Вибрации) Ivanov
Director : ale_x2008
Genre : Drama
Writing application : VirtualDubMod 1.5.10.3 (build 2550/release)
Original source form/Name : Movie
Copyright : Edich2
Comment : 18.10.2015
Video
ID : 0
Format : MPEG-4 Visual
Format profile : Advanced Simple@L5
Format settings, BVOP : 1
Format settings, QPel : No
Format settings, GMC : No warppoints
Format settings, Matrix : Default (MPEG)
Codec ID : XVID
Codec ID/Hint : XviD
Duration : 1h 42mn
Bit rate : 1 847 Kbps
Width : 704 pixels
Height : 400 pixels
Display aspect ratio : 16:9
Frame rate : 23.976 fps
Color space : YUV
Chroma subsampling : 4:2:0
Bit depth : 8 bits
Scan type : Progressive
Compression mode : Lossy
Bits/(Pixel*Frame) : 0.274
Stream size : 1.32 GiB (90%)
Writing library : XviD 73
Audio
ID : 1
Format : AC-3
Format/Info : Audio Coding 3
Mode extension : CM (complete main)
Format settings, Endianness : Big
Codec ID : 2000
Duration : 1h 42mn
Bit rate mode : Constant
Bit rate : 192 Kbps
Channel(s) : 2 channels
Channel positions : Front: L R
Sampling rate : 48.0 KHz
Bit depth : 16 bits
Compression mode : Lossy
Stream size : 141 MiB (9%)
Alignment : Split accross interleaves
Interleave, duration : 42 ms (1.00 video frame)
Interleave, preload duration : 500 ms

Скриншоты


To download the content you need:
1. Download and install torrent client [for Windows] or for mobile system
2. Click on [Download]
Attention.
If the test YOU are NOT a ROBOT - does not work, then You are using an outdated browser.
Install the current browser and click on [Download]

Do not work with Yandex browser. Uploading files to them is erroneous.
Security: torrent client is allowed by Kaspersky.

[en.asmlocator.ru].t4675.torrent 
Torrent: Registered [ 2015-12-02 05:40 ] · 3CE3F1194D94BCD8706A33026F835048FC5C85A3

Download .torrent

Download

15 KB

Status: checked
Completed: 1 times
Size: 1.46 GB
terms.php
[Profile] [PM]
Display posts:    
Reply to topic

Current time is: 28-Mar 23:31

All times are UTC ± 0



You cannot post new topics in this forum
You cannot reply to topics in this forum
You cannot edit your posts in this forum
You cannot delete your posts in this forum
You cannot vote in polls in this forum
You cannot attach files in this forum
You can download files in this forum
Верим фактам, а не вранью Путина! Факт, что Правительство ведёт Россию к истреблению.
Так как численность населения падает, даже не смотря на приток эмигрантов!
Русская нация вымирает и вырождается, смешиваясь с эмигрантами!
Факт, что военных и граждан предприятий заставляют голосовать за партию Единая Россия и Путина
ПОД СТРАХОМ УВОЛЬНЕНИЯ!
Нам не нужно Правительство, блокирующее личную жизнь, интернет, нарушающее сохранность данных.
Все эти действия финансируются за счёт народа!