Народ Против Ларри Флинта / The People vs. Larry Flynt (Милош Форман / Milos Forman) [1996, США, драма, биография, BDRip] MVO (РТР)

Reply to topic
DL-List and Torrent activity
Size:  1.45 GB   |    Registered:  4 years 3 months   |    Completed:  0 times

Seeder not seen: Never

 
   
 
 
Author Message

star21 ®

Gender: Female

Longevity: 4 years 4 months

Posts: 551945

Location: Екатеринбург

Post 02-Dec-2015 05:40

[Quote]

Народ Против Ларри Флинта / The People vs. Larry Flynt-Этот человек стал настоящем героем сексуальной революции.
Он высмеял и растоптал общественную мораль.
И общество жестоко отомстило ему.
Самый скандальный фильм 1996 года от режиссёра "Пролетая над Гнездом Кукушки".
- Год выпуска: 1996
Страна: США
Жанр: драма, биография
Продолжительность: 02:09:28
Перевод: Профессиональный (многоголосый закадровый) - РТР
Cубтитры: нет
Режиссер: Милош Форман / Milos Forman
В ролях: Вуди Харрельсон (Larry Flynt), Кортни Лав (Althea Leasure Flynt), Эдвард Нортон (Alan Isaacman), Бретт Харрельсон (Jimmy Flynt), Донна Хэновер (Ruth Carter Stapleton), Джеймс Кромуэлл (Charles Keating), Криспин Гловер (Arlo), Винсент Скьявелли (Chester), Майлз Чэпин (Miles), Джеймс Карвилл (Simon Leis)-Мировая премьера: 13 октября 1996-Описание: Ларри Флинт — герой семидесятых, эпохи сексуальной революции, наркотиков и культурных катаклизмов. Он видел — людям нужно нечто большее, чем ТВ и пикники по уик-эндам. Им нужны зрелища. Обладая завидной интуицией он решил сделать шаг, который навсегда изменил его жизнь и разделил общество на тех, кто был за и против него. Он стал издавать порножурнал. Но «Hustler» стал не просто журналом. Это был вызов обществу. И оскорбленное общество решило наказать Ларри Флинта.-Огромная благодарность:
- .
- собственная запись перевода с телеканала РТР в 2001 году через видеомагнитофон и оцифровка с видеокассеты.
- синхронизация перевода.-Данный перевод на трекере появляется впервые.
На русский язык фильм озвучен по заказу РТР в 2001 году.
Текст читают Олег Куценко, Андрей Бархударов и др.-Рейтинг

MPAA: R - Лицам до 17 лет обязательно присутствие взрослого.-Качество видео: BDRip
Формат видео: AVI -> //SAMPLE//
Видео: XviD, 720x304 (2.35:1), 23.976 fps, 1405 kbps avg
Аудио:
1 - 48 khz, AC3 Dolby Digital, 2/0 (L,R) ch, ~192 kbps [РТР] VHSRip

MediaInfo

General
Complete name : D:\Торрент Файлы\Будущие Релизы на Трекере\1.35 - 1.46 и более гб\Народ Против Ларри Флинта (РТР).avi
Format : AVI
Format/Info : Audio Video Interleave
File size : 1.45 GiB
Duration : 2h 9mn
Overall bit rate : 1 606 Kbps
Writing application : VirtualDubMod 1.5.10.3 | www.virtualdub-fr.org || (build 2550/release)
Writing library : VirtualDubMod build 2550/release
Video
ID : 0
Format : MPEG-4 Visual
Format profile : Advanced Simple@L5
Format settings, BVOP : 1
Format settings, QPel : No
Format settings, GMC : No warppoints
Format settings, Matrix : Custom
Codec ID : XVID
Codec ID/Hint : XviD
Duration : 2h 9mn
Bit rate : 1 405 Kbps
Width : 720 pixels
Height : 304 pixels
Display aspect ratio : 2.35:1
Frame rate : 23.976 fps
Color space : YUV
Chroma subsampling : 4:2:0
Bit depth : 8 bits
Scan type : Progressive
Compression mode : Lossy
Bits/(Pixel*Frame) : 0.268
Stream size : 1.27 GiB (87%)
Writing library : XviD 1.2.1 (UTC 2008-12-04)
Audio
ID : 1
Format : AC-3
Format/Info : Audio Coding 3
Mode extension : CM (complete main)
Format settings, Endianness : Big
Codec ID : 2000
Duration : 2h 9mn
Bit rate mode : Constant
Bit rate : 192 Kbps
Channel(s) : 2 channels
Channel positions : Front: L R
Sampling rate : 48.0 KHz
Compression mode : Lossy
Stream size : 178 MiB (12%)
Alignment : Split accross interleaves
Interleave, duration : 42 ms (1.00 video frame)
Interleave, preload duratio : 500 ms

Скриншот c названием фильма

Скриншоты

To download the content you need:
1. Download and install torrent client [for Windows] or for mobile system
2. Click on [Download]
Attention.
If the test YOU are NOT a ROBOT - does not work, then You are using an outdated browser.
Install the current browser and click on [Download]

Do not work with Yandex browser. Uploading files to them is erroneous.
Security: torrent client is allowed by Kaspersky.

[en.asmlocator.ru].t4674.torrent 
Torrent: Registered [ 2015-12-02 05:40 ] · 351D7E71FB646BD1647AC8CE64FCD62A31F9DB8F

Download .torrent

Download

15 KB

Status: checked
Completed: 0 times
Size: 1.45 GB
terms.php
[Profile] [PM]
Display posts:    
Reply to topic

Current time is: 31-Mar 19:16

All times are UTC ± 0



You cannot post new topics in this forum
You cannot reply to topics in this forum
You cannot edit your posts in this forum
You cannot delete your posts in this forum
You cannot vote in polls in this forum
You cannot attach files in this forum
You can download files in this forum
Верим фактам, а не вранью Путина! Факт, что Правительство ведёт Россию к истреблению.
Так как численность населения падает, даже не смотря на приток эмигрантов!
Русская нация вымирает и вырождается, смешиваясь с эмигрантами!
Факт, что военных и граждан предприятий заставляют голосовать за партию Единая Россия и Путина
ПОД СТРАХОМ УВОЛЬНЕНИЯ!
Нам не нужно Правительство, блокирующее личную жизнь, интернет, нарушающее сохранность данных.
Все эти действия финансируются за счёт народа!