Сеть / The Net (Ирвин Уинклер / Irwin Winkler) [1995, США, боевик, триллер, драма, криминал, детектив, BDRip] MVO (РТР) + MVO (НТВ) + MVO (Видеосервис)

Reply to topic
DL-List and Torrent activity
Size:  2.08 GB   |    Registered:  4 years 3 months   |    Completed:  0 times

Seeder not seen: Never

 
   
 
 
Author Message

star21 ®

Gender: Female

Longevity: 4 years 4 months

Posts: 551945

Location: Екатеринбург

Post 02-Dec-2015 05:40

[Quote]

Сеть / The Net-Всю планету окутала глобальная компьютерная сеть.
В мире высоких технологий достаточно одного нажатия клавиши,
чтобы лишить человека не только работы и средств к существованию, но и самой жизни.
- Год выпуска: 1995
Страна: США
Жанр: боевик, триллер, драма, криминал, детектив
Продолжительность: 01:54:18
Перевод: Профессиональный (многоголосый закадровый) - РТР
Перевод 2: Профессиональный (многоголосый закадровый) - НТВ
Перевод 3: Профессиональный (многоголосый закадровый) - Видеосервис
Cубтитры: нет
Режиссер: Ирвин Уинклер / Irwin Winkler
В ролях: Сандра Буллок (Angela Bennett, Ruth Marx), Джереми Нортэм (Jack Devlin), Деннис Миллер (Dr. Alan Champion), Дайан Бэйкер (Mrs. Bennett), Венди Газелль (Ruth Marx), Кен Ховард (Michael Bergstrom), Рэй МакКиннон (Dale Hessman), Дэниел Шорр (WNN Anchor), Л. Скотт Колдуэлл (Public Defender), Роберт Госсетт (Ben Phillips)-Мировая премьера: 28 июля 1995-Описание: Как и все мы, Анжела Беннет живет в век информации. Все аспекты ее существования переведены в цифры и занесены в различные компьютерные базы данных: личный идентификационный номер, номер банковского счета, номер страхового свидетельства, номер водительского удостоверения, сведения об отсутствии судимости. Работа Анжелы тоже связана с компьютерами — она программист. Существование Анжелы Беннет полностью компьютеризованно. Она не придает этому значения, но однажды ее личность стирают! Гуляя по компьютерной сети, Анжела случайно перебегает дорогу преторианцам. Преторианцами называют себя члены организованной группы хакеров, на счету которых взломы правительственных систем безопасности, биржевые крахи, авиакатастрофы и убийства, совершенные с использованием только одного оружия — всемирной сети интернет. Анжела становится следующей жертвой в списке хакеров. Они стирают ее личность и вписывают в биографию Анжелы новое имя и преступное прошлое. Согласно сфабрикованным данным, Анжела — опасная преступница, которая находится в розыске. Она должна найти в себе силы побороть злых компьютерных гениев.-Исходник видео: от .-Благодарности:
- собственная запись перевода с телеканала РТР в 2001 году через видеомагнитофон и оцифровка с видеокассеты.
- собственная запись перевода НТВ с телеканала ТВЦ в 2011 году.
- оцифровка перевода со своей собственной лицензионной видеокассеты от видео-компании Видеосервис.
- синхронизация переводов.-Данные переводы на трекере появляются впервые.-На русский язык фильм озвучен на студии "Нота" по заказу телеканала РТР в 2001 году.
Часть мужских ролей озвучивает Александр Груздев.
На русский язык фильм озвучен телекомпанией НТВ.
Текст читают Дмитрий Полонский, Владимир Вихров и Марина Тарасова.
На русский язык фильм озвучен по заказу видео-компании Видеосервис.
Мужские роли озвучивают Владимир Вихров и Олег Форостенко.-
Рейтинг
kinopoisk.ru: 7.048 (6442)
imdb.com: 5.80 (41 634)
MPAA: PG-13 - Детям до 13 лет просмотр не желателен-Качество видео: BDRip
Формат видео: AVI -> //SAMPLE//
Видео: XviD, 720x400 (16:9), 23.976 fps, 2006 kbps avg
Аудио:
1 - 48 khz, AC3 Dolby Digital, 2/0 (L,R) ch, ~192 kbps [РТР] VHSRip
2 - 48 khz, AC3 Dolby Digital, 2/0 (L,R) ch, ~192 kbps [НТВ / ТВЦ] SATRip
3 - 48 khz, AC3 Dolby Digital, 2/0 (L,R) ch, ~192 kbps [Видеосервис] VHSRip-Обновление релиза от 19.10.2015. Причина:
Заменён видеоряд и перевод РТР. Теперь он полный, без всяких вставок в конце.
Просьба перескачать торрент!

MediaInfo

General
Complete name : D:\Торрент Файлы\Будущие Релизы на Трекере\2.05 - 2.20 и более гб\Сеть (РТР + НТВ + Видеосервис).avi
Format : AVI
Format/Info : Audio Video Interleave
Format profile : OpenDML
File size : 2.08 GiB
Duration : 1h 54mn
Overall bit rate : 2 607 Kbps
Writing application : VirtualDubMod 1.5.10.3 | www.virtualdub-fr.org || (build 2550/release)
Writing library : VirtualDubMod build 2550/release
Video
ID : 0
Format : MPEG-4 Visual
Format profile : Advanced Simple@L5
Format settings, BVOP : 1
Format settings, QPel : No
Format settings, GMC : No warppoints
Format settings, Matrix : Default (MPEG)
Codec ID : XVID
Codec ID/Hint : XviD
Duration : 1h 54mn
Bit rate : 2 006 Kbps
Width : 720 pixels
Height : 400 pixels
Display aspect ratio : 16:9
Frame rate : 23.976 fps
Color space : YUV
Chroma subsampling : 4:2:0
Bit depth : 8 bits
Scan type : Progressive
Compression mode : Lossy
Bits/(Pixel*Frame) : 0.291
Stream size : 1.60 GiB (77%)
Writing library : XviD 1.2.1 (UTC 2008-12-04)
Audio #1
ID : 1
Format : AC-3
Format/Info : Audio Coding 3
Mode extension : CM (complete main)
Format settings, Endianness : Big
Codec ID : 2000
Duration : 1h 54mn
Bit rate mode : Constant
Bit rate : 192 Kbps
Channel(s) : 2 channels
Channel positions : Front: L R
Sampling rate : 48.0 KHz
Compression mode : Lossy
Stream size : 157 MiB (7%)
Alignment : Split accross interleaves
Interleave, duration : 42 ms (1.00 video frame)
Interleave, preload duratio : 500 ms
Audio #2
ID : 2
Format : AC-3
Format/Info : Audio Coding 3
Mode extension : CM (complete main)
Format settings, Endianness : Big
Codec ID : 2000
Duration : 1h 54mn
Bit rate mode : Constant
Bit rate : 192 Kbps
Channel(s) : 2 channels
Channel positions : Front: L R
Sampling rate : 48.0 KHz
Compression mode : Lossy
Stream size : 157 MiB (7%)
Alignment : Split accross interleaves
Interleave, duration : 42 ms (1.00 video frame)
Interleave, preload duratio : 500 ms
Audio #3
ID : 3
Format : AC-3
Format/Info : Audio Coding 3
Mode extension : CM (complete main)
Format settings, Endianness : Big
Codec ID : 2000
Duration : 1h 54mn
Bit rate mode : Constant
Bit rate : 192 Kbps
Channel(s) : 2 channels
Channel positions : Front: L R
Sampling rate : 48.0 KHz
Compression mode : Lossy
Stream size : 157 MiB (7%)
Alignment : Split accross interleaves
Interleave, duration : 42 ms (1.00 video frame)
Interleave, preload duratio : 500 ms

Скриншот c названием фильма

Скриншоты

To download the content you need:
1. Download and install torrent client [for Windows] or for mobile system
2. Click on [Download]
Attention.
If the test YOU are NOT a ROBOT - does not work, then You are using an outdated browser.
Install the current browser and click on [Download]

Do not work with Yandex browser. Uploading files to them is erroneous.
Security: torrent client is allowed by Kaspersky.

[en.asmlocator.ru].t4673.torrent 
Torrent: Registered [ 2015-12-02 05:40 ] · 4082977EB15E7804BBA8E7782F1DE981D33C4799

Download .torrent

Download

11 KB

Status: checked
Completed: 0 times
Size: 2.08 GB
terms.php
[Profile] [PM]
Display posts:    
Reply to topic

Current time is: 29-Mar 18:30

All times are UTC ± 0



You cannot post new topics in this forum
You cannot reply to topics in this forum
You cannot edit your posts in this forum
You cannot delete your posts in this forum
You cannot vote in polls in this forum
You cannot attach files in this forum
You can download files in this forum
Верим фактам, а не вранью Путина! Факт, что Правительство ведёт Россию к истреблению.
Так как численность населения падает, даже не смотря на приток эмигрантов!
Русская нация вымирает и вырождается, смешиваясь с эмигрантами!
Факт, что военных и граждан предприятий заставляют голосовать за партию Единая Россия и Путина
ПОД СТРАХОМ УВОЛЬНЕНИЯ!
Нам не нужно Правительство, блокирующее личную жизнь, интернет, нарушающее сохранность данных.
Все эти действия финансируются за счёт народа!