Лунное безумие / Лунные безумцы / Рассерженные на луну / Безумие полной луны / Mad at the Moon (Мартин Донован / Martin Donovan) [1992, США, Ужасы, мистика, вестерн, DVDRip] MVO

Reply to topic
DL-List and Torrent activity
Size:  1.45 GB   |    Registered:  4 years 4 months   |    Completed:  0 times

Seeder not seen: 3 months 16 days

 
   
 
 
Author Message

star21 ®

Gender: Female

Longevity: 4 years 4 months

Posts: 551945

Location: Екатеринбург

Post 01-Dec-2015 14:00

[Quote]

Лунное безумие / Лунные безумцы / Рассерженные на луну / Безумие полной луны / Mad at the Moon
Страна: США
Жанр: Ужасы, мистика, вестерн
Год выпуска: 1992
Продолжительность: 01:38:19
Перевод: Профессиональный (многоголосый закадровый)
Cубтитры: нет
Режиссер: Мартин Донован / Martin Donovan
В ролях: Мэри Стюарт Мастерсон /Mary Stuart Masterson/, Харт Бокнер /Hart Bochner/, Файоннула Флэннэгэн /Fionnula Flannagan/, Чек Веррелл /Cec Verrell/, Стивен Блэйк /Stephen Blake/
Описание: Дженни Хилл с детства влюблена в бродягу и игрока Миллера Брауна. Но мать вынуждает ее принять предложение сводного брата Миллера — Джеймса, обеспеченного обладателя ранчо.
Тем более что Джеймс просто без ума от Дженни. Но в брачную ночь выясняется, что полнолуние производит совершенно фантастическое действие на Джеймса: словно обезумев, он воет на Луну, его тело сводят судороги и он превращается в кровожадную бестию…
Доп. информация: За этот редкий фильм благодарим хорошего человека под ником SuperDVD01
Релиз
Сэмпл: https://yadi.sk/i/wO9vENbvjrUpo
Качество видео: DVDRip
Формат видео: AVI
Видео: 512x384 (1.33:1), 25 fps, DivX MPEG-4 ~1914 kbps avg, 0.39 bit/pixel
Аудио: 48 kHz, AC3 Dolby Digital, 2/0 (L,R) ch, ~192 kbps

MediaInfo

Безумие полной луны - Mad at the Moon [by Edich2].avi
Format : AVI
Format/Info : Audio Video Interleave
File size : 1.45 GiB
Duration : 1h 38mn
Overall bit rate : 2 116 Kbps
Movie name : Безумие полной луны - Mad at the Moon [by Edich2]
Director : by Edich2
Writing application : VirtualDubMod 1.5.10.2 (build 2540/release)
Comment : RuTracker.org
Video
ID : 0
Format : MPEG-4 Visual
Codec ID : DIV3
Codec ID/Hint : DivX 3 Low
Duration : 1h 38mn
Bit rate : 1 914 Kbps
Width : 512 pixels
Height : 384 pixels
Display aspect ratio : 4:3
Frame rate : 25.000 fps
Color space : YUV
Chroma subsampling : 4:2:0
Bit depth : 8 bits
Compression mode : Lossy
Bits/(Pixel*Frame) : 0.389
Stream size : 1.31 GiB (90%)
Audio
ID : 1
Format : AC-3
Format/Info : Audio Coding 3
Mode extension : CM (complete main)
Format settings, Endianness : Big
Codec ID : 2000
Duration : 1h 38mn
Bit rate mode : Constant
Bit rate : 192 Kbps
Channel(s) : 2 channels
Channel positions : Front: L R
Sampling rate : 48.0 KHz
Bit depth : 16 bits
Compression mode : Lossy
Stream size : 135 MiB (9%)
Alignment : Split accross interleaves
Interleave, duration : 40 ms (1.00 video frame)
Interleave, preload duration : 500 ms

Скриншоты


To download the content you need:
1. Download and install torrent client [for Windows] or for mobile system
2. Click on [Download]
Attention.
If the test YOU are NOT a ROBOT - does not work, then You are using an outdated browser.
Install the current browser and click on [Download]

Do not work with Yandex browser. Uploading files to them is erroneous.
Security: torrent client is allowed by Kaspersky.

[en.asmlocator.ru].t4669.torrent 
Torrent: Registered [ 2015-12-01 13:55 ] · 9A063F48D5B6549236AD899C772337575E22A30D

Download .torrent

Download

15 KB

Status: checked
Completed: 0 times
Size: 1.45 GB
terms.php
[Profile] [PM]
Display posts:    
Reply to topic

Current time is: 03-Apr 03:59

All times are UTC ± 0



You cannot post new topics in this forum
You cannot reply to topics in this forum
You cannot edit your posts in this forum
You cannot delete your posts in this forum
You cannot vote in polls in this forum
You cannot attach files in this forum
You can download files in this forum
Верим фактам, а не вранью Путина! Факт, что Правительство ведёт Россию к истреблению.
Так как численность населения падает, даже не смотря на приток эмигрантов!
Русская нация вымирает и вырождается, смешиваясь с эмигрантами!
Факт, что военных и граждан предприятий заставляют голосовать за партию Единая Россия и Путина
ПОД СТРАХОМ УВОЛЬНЕНИЯ!
Нам не нужно Правительство, блокирующее личную жизнь, интернет, нарушающее сохранность данных.
Все эти действия финансируются за счёт народа!