Покидая Лас-Вегас / Leaving Las Vegas (Майк Фиггис / Mike Figgis) [1995, США, драма, мелодрама, BDRip] MVO (Мост Видео) + DVO (LNT) + VO (FilmIMAX)

Reply to topic
DL-List and Torrent activity
Size:  2.08 GB   |    Registered:  4 years 3 months   |    Completed:  1 time

Seeder not seen: 5 months 9 days

 
   
 
 
Author Message

star21 ®

Gender: Female

Longevity: 4 years 4 months

Posts: 551945

Location: Екатеринбург

Post 01-Dec-2015 14:00

[Quote]

Покидая Лас-Вегас / Leaving Las Vegas
Год выпуска: 1995
Страна: США
Жанр: драма, мелодрама
Продолжительность: 01:51:25
Перевод: Профессиональный (многоголосый закадровый) - Мост Видео
Перевод 2: Профессиональный (двухголосый закадровый) - LNT
Перевод 3: Студийный (одноголосый закадровый) - FilmIMAX
Cубтитры: нет
Режиссер: Майк Фиггис / Mike Figgis
В ролях: Николас Кейдж (Ben Sanderson), Элизабет Шу (Sera), Джулиан Сэндс (Yuri), Ричард Льюис (Peter), Стивен Уэбер (Marc Nussbaum), Ким Эдамс (Sheila), Эмили Проктер (Debbie), Стюарт Реген (Man at Bar), Валерия Голино (Terri), Грэм Беккел (L.A. Bartender)-Мировая премьера: 15 сентября 1995-Описание: Если вся жизнь кажется кошмаром. Если затяжной запой окончательно разрушил карьеру в серьезной фирме. Может быть, есть смысл уничтожить все, что связывало тебя с прошлой жизнью и начать новую? В блестящем и грешном Лас-Вегасе. Где среди блеска ночной жизни одинокая «ночная бабочка» может оказаться внимательнее и сердечнее любого психоаналитика. Потому что она захочет спасти несчастного пропойцу от него самого… Сможет ли эта странная любовь помочь обоим? Или — погубить обоих?-Исходник видео: от-Огромная благодарность:
- собственная запись перевода Мост Видео с какого-то телеканала через видеомагнитофон и оцифровка с видеокассеты.
- собственная запись перевода с телеканала LNT в конце 90-х годов через видеомагнитофон и оцифровка с видеокассеты + оцифровка перевода со своей собственной лицензионной видеокассеты от видео-компании FilmIMAX.
- синхронизация переводов.-Данные переводы на трекере появляются впервые.-На русский язык фильм озвучен на студии Мост Видео.
Текст читают Любовь Германова, Владимир Герасимов и Валерий Сторожик.
На русский язык фильм озвучен телекомпанией LNT.
Текст читают Игорь Пронин и Светлана Иванникова.-Рейтинг

MPAA: R - Лицам до 17 лет обязательно присутствие взрослого.-Качество видео: BDRip
Формат видео: AVI -> //Сэмпл//
Видео: XviD, 720x400 (16:9), 23.976 fps, 2069 kbps avg
Аудио:
1 - 48 khz, AC3 Dolby Digital, 2/0 (L,R) ch, ~192 kbps [Мост Видео] VHSRip
2 - 48 khz, AC3 Dolby Digital, 2/0 (L,R) ch, ~192 kbps [LNT] VHSRip
3 - 48 khz, AC3 Dolby Digital, 2/0 (L,R) ch, ~192 kbps [FilmIMAX] VHSRip

MediaInfo

General
Complete name : D:\Торрент Файлы\Будущие Релизы на Трекере\2.05 - 2.20 и более гб\Покидая Лас-Вегас (НТВ-Мост Видео + LNT + FilmIMAX).avi
Format : AVI
Format/Info : Audio Video Interleave
Format profile : OpenDML
File size : 2.08 GiB
Duration : 1h 51mn
Overall bit rate : 2 670 Kbps
Writing application : VirtualDubMod 1.5.10.3 | www.virtualdub-fr.org || (build 2550/release)
Writing library : VirtualDubMod build 2550/release
Video
ID : 0
Format : MPEG-4 Visual
Format profile : Advanced Simple@L5
Format settings, BVOP : 1
Format settings, QPel : No
Format settings, GMC : No warppoints
Format settings, Matrix : Default (MPEG)
Codec ID : XVID
Codec ID/Hint : XviD
Duration : 1h 51mn
Bit rate : 2 069 Kbps
Width : 720 pixels
Height : 400 pixels
Display aspect ratio : 16:9
Frame rate : 23.976 fps
Color space : YUV
Chroma subsampling : 4:2:0
Bit depth : 8 bits
Scan type : Progressive
Compression mode : Lossy
Bits/(Pixel*Frame) : 0.300
Stream size : 1.61 GiB (78%)
Writing library : XviD 1.2.1 (UTC 2008-12-04)
Audio #1
ID : 1
Format : AC-3
Format/Info : Audio Coding 3
Mode extension : CM (complete main)
Format settings, Endianness : Big
Codec ID : 2000
Duration : 1h 51mn
Bit rate mode : Constant
Bit rate : 192 Kbps
Channel(s) : 2 channels
Channel positions : Front: L R
Sampling rate : 48.0 KHz
Compression mode : Lossy
Stream size : 153 MiB (7%)
Alignment : Split accross interleaves
Interleave, duration : 42 ms (1.00 video frame)
Interleave, preload duratio : 500 ms
Audio #2
ID : 2
Format : AC-3
Format/Info : Audio Coding 3
Mode extension : CM (complete main)
Format settings, Endianness : Big
Codec ID : 2000
Duration : 1h 51mn
Bit rate mode : Constant
Bit rate : 192 Kbps
Channel(s) : 2 channels
Channel positions : Front: L R
Sampling rate : 48.0 KHz
Compression mode : Lossy
Stream size : 153 MiB (7%)
Alignment : Split accross interleaves
Interleave, duration : 42 ms (1.00 video frame)
Interleave, preload duratio : 500 ms
Audio #3
ID : 3
Format : AC-3
Format/Info : Audio Coding 3
Mode extension : CM (complete main)
Format settings, Endianness : Big
Codec ID : 2000
Duration : 1h 51mn
Bit rate mode : Constant
Bit rate : 192 Kbps
Channel(s) : 2 channels
Channel positions : Front: L R
Sampling rate : 48.0 KHz
Compression mode : Lossy
Stream size : 153 MiB (7%)
Alignment : Split accross interleaves
Interleave, duration : 42 ms (1.00 video frame)
Interleave, preload duratio : 500 ms

Скриншот c названием фильма

Скриншоты

To download the content you need:
1. Download and install torrent client [for Windows] or for mobile system
2. Click on [Download]
Attention.
If the test YOU are NOT a ROBOT - does not work, then You are using an outdated browser.
Install the current browser and click on [Download]

Do not work with Yandex browser. Uploading files to them is erroneous.
Security: torrent client is allowed by Kaspersky.

[en.asmlocator.ru].t4668.torrent 
Torrent: Registered [ 2015-12-01 13:55 ] · FA7C64FBB00CC3EB8D4062E3E8008A98E74BDA06

Download .torrent

Download

11 KB

Status: checked
Completed: 1 times
Size: 2.08 GB
terms.php
[Profile] [PM]
Display posts:    
Reply to topic

Current time is: 29-Mar 18:19

All times are UTC ± 0



You cannot post new topics in this forum
You cannot reply to topics in this forum
You cannot edit your posts in this forum
You cannot delete your posts in this forum
You cannot vote in polls in this forum
You cannot attach files in this forum
You can download files in this forum
Верим фактам, а не вранью Путина! Факт, что Правительство ведёт Россию к истреблению.
Так как численность населения падает, даже не смотря на приток эмигрантов!
Русская нация вымирает и вырождается, смешиваясь с эмигрантами!
Факт, что военных и граждан предприятий заставляют голосовать за партию Единая Россия и Путина
ПОД СТРАХОМ УВОЛЬНЕНИЯ!
Нам не нужно Правительство, блокирующее личную жизнь, интернет, нарушающее сохранность данных.
Все эти действия финансируются за счёт народа!