Разбитые сердца / Before Women Had Wings (Ллойд Крамер / Lloyd Kramer) [1997, США, Драма, экранизация, DVDRip] DVO (студия "Видео М" по заказу Екатеринбург Арт) + Original Eng

Reply to topic
DL-List and Torrent activity
Size:  1.39 GB   |    Registered:  4 years 4 months   |    Completed:  0 times

Seeder not seen: Never

 
   
 
 
Author Message

star21 ®

Gender: Female

Longevity: 4 years 4 months

Posts: 551945

Location: Екатеринбург

Post 01-Dec-2015 14:00

[Quote]

Разбитые сердца / Before Women Had Wings
Страна: США
Жанр: Драма, экранизация
Год выпуска: 1997
Продолжительность: 01:28:34
Перевод: Профессиональный (двухголосый закадровый) студия "Видео М" по заказу Екатеринбург Арт
Оригинальная дорожка: английский
Cубтитры: нет
Режиссер: Ллойд Крамер / Lloyd Kramer
В ролях: Эллен Баркин, Тина Мэйджорино, Джулия Стайлз, Бёрт Янг, Уильям Ли Скотт, Опра Уинфри, Джон Янгс, Круньали Луис, Харт Дэвид
Описание: По бестселлеру Конни Мэй Фаулер. Бёрд 9 лет. Вместе с матерью и старшей сестрой она переезжает из сельской Флориды в город Тампу после того, как в семье случилось несчастье: отец совершил самоубийство. Мать Берд, волевая и гордая женщина, теперь испытывает лишь одиночество и опустошенность. Трагедия привела ее к нервному срыву, и ее состояние отражается на детях. Особенно тяжело приходится Бёрд. Она не может найти друзей на новом месте - до тех пор, пока не знакомится с Зорой, мудрой и доброй женщиной с загадочной судьбой. Зора учит Бёрд любить, надеяться и прощать, помогая ей пережить трудные времена...
Доп. информация: За дорожку и видеоряд спасибо smit009
За синхрон дорожки спасибо xelon2006

Релиз
Сэмпл: https://yadi.sk/i/g0smS6bXgXzwZ
Качество видео: DVDRip
Формат видео: AVI
Видео: 688x512 (1.34:1), 25 fps, XviD build 73 ~1840 kbps avg, 0.21 bit/pixel
Аудио: 48 kHz, AC3 Dolby Digital, 2/0 (L,R) ch, ~192 kbps
Аудио 2: 48 kHz, AC3 Dolby Digital, 2/0 (L,R) ch, ~192 kbps eng

MediaInfo

Разбитые сердца - Before Women Had Wings [by Edich2] fix.avi
Format : AVI
Format/Info : Audio Video Interleave
File size : 1.39 GiB
Duration : 1h 28mn
Overall bit rate : 2 239 Kbps
Writing application : VirtualDubMod 1.5.10.2 (build 2540/release)
Writing library : VirtualDubMod build 2540/release
Video
ID : 0
Format : MPEG-4 Visual
Format profile : Advanced Simple@L5
Format settings, BVOP : 1
Format settings, QPel : No
Format settings, GMC : No warppoints
Format settings, Matrix : Default (MPEG)
Codec ID : XVID
Codec ID/Hint : XviD
Duration : 1h 28mn
Bit rate : 1 841 Kbps
Width : 688 pixels
Height : 512 pixels
Display aspect ratio : 4:3
Frame rate : 25.000 fps
Color space : YUV
Chroma subsampling : 4:2:0
Bit depth : 8 bits
Scan type : Progressive
Compression mode : Lossy
Bits/(Pixel*Frame) : 0.209
Stream size : 1.14 GiB (82%)
Writing library : XviD 73
Audio #1
ID : 1
Format : AC-3
Format/Info : Audio Coding 3
Mode extension : CM (complete main)
Format settings, Endianness : Big
Codec ID : 2000
Duration : 1h 28mn
Bit rate mode : Constant
Bit rate : 192 Kbps
Channel(s) : 2 channels
Channel positions : Front: L R
Sampling rate : 48.0 KHz
Bit depth : 16 bits
Compression mode : Lossy
Stream size : 122 MiB (9%)
Alignment : Split accross interleaves
Interleave, duration : 40 ms (1.00 video frame)
Interleave, preload duration : 500 ms
Audio #2
ID : 2
Format : AC-3
Format/Info : Audio Coding 3
Mode extension : CM (complete main)
Format settings, Endianness : Big
Codec ID : 2000
Duration : 1h 28mn
Bit rate mode : Constant
Bit rate : 192 Kbps
Channel(s) : 2 channels
Channel positions : Front: L R
Sampling rate : 48.0 KHz
Bit depth : 16 bits
Compression mode : Lossy
Delay relative to video : 8s 324ms
Stream size : 122 MiB (9%)
Alignment : Split accross interleaves
Interleave, duration : 40 ms (1.00 video frame)
Interleave, preload duration : 500 ms

Скриншоты


To download the content you need:
1. Download and install torrent client [for Windows] or for mobile system
2. Click on [Download]
Attention.
If the test YOU are NOT a ROBOT - does not work, then You are using an outdated browser.
Install the current browser and click on [Download]

Do not work with Yandex browser. Uploading files to them is erroneous.
Security: torrent client is allowed by Kaspersky.

[en.asmlocator.ru].t4665.torrent 
Torrent: Registered [ 2015-12-01 13:55 ] · 3BE59C7D2AE79C0A63708FBD14D1737E9DA5A6E1

Download .torrent

Download

14 KB

Status: checked
Completed: 0 times
Size: 1.39 GB
terms.php
[Profile] [PM]
Display posts:    
Reply to topic

Current time is: 03-Apr 03:54

All times are UTC ± 0



You cannot post new topics in this forum
You cannot reply to topics in this forum
You cannot edit your posts in this forum
You cannot delete your posts in this forum
You cannot vote in polls in this forum
You cannot attach files in this forum
You can download files in this forum
Верим фактам, а не вранью Путина! Факт, что Правительство ведёт Россию к истреблению.
Так как численность населения падает, даже не смотря на приток эмигрантов!
Русская нация вымирает и вырождается, смешиваясь с эмигрантами!
Факт, что военных и граждан предприятий заставляют голосовать за партию Единая Россия и Путина
ПОД СТРАХОМ УВОЛЬНЕНИЯ!
Нам не нужно Правительство, блокирующее личную жизнь, интернет, нарушающее сохранность данных.
Все эти действия финансируются за счёт народа!