Преступление в Коннектикуте: История Алекс Келли / Crime in Connecticut: The Story of Alex Kelly (Тед Котчефф / Ted Kotcheff) [1999, Канада, США, Криминальная драма, SATRip] MVO

Reply to topic
DL-List and Torrent activity
Size:  1.36 GB   |    Registered:  4 years 6 months   |    Completed:  0 times
DL-List: None

Seeder not seen: Never

 
   
 
 
Author Message

star21 ®

Gender: Female

Longevity: 4 years 7 months

Posts: 551945

Location: Екатеринбург

Post 01-Dec-2015 14:00

[Quote]

Преступление в Коннектикуте: История Алекс Келли / Crime in Connecticut: The Story of Alex Kelly
Страна: Канада, США
Жанр: Криминальная драма
Год выпуска: 1999
Продолжительность: 01:26:48
Перевод: Профессиональный (многоголосый закадровый)
Cубтитры: нет
Режиссер: Тед Котчефф / Ted Kotcheff
В ролях: Мэттью Сеттл (Алекс Келли), Кэссиди Рей (Карри Робертс), Барри Флэтмен (Джо Келли), Ванда Кэннон (Филлис Робертс), Марго Киддер (Мелани Келли), Джефф Топпинг (Крис Келли)
Описание: Молодой спортсмен Алекс Келли изнасиловал девушку и сбежал в Европу. Ему удавалось скрываться на протяжении семи лет. Келли сдался властям только после того, как против его родителей были выдвинуты обвинения в укрывательстве.
Доп. информация: За предоставленный рип благодарим Ledy_X
"Спасибы" просьба ПИСАТЬ в теме, тем самым вы продлеваете жизнь раздаче.
Релиз
Сэмпл: https://yadi.sk/d/bnsM4NPVbmq3N
Качество видео: SATRip
Формат видео: AVI
Видео: 720x512 (1.41:1), 25 fps, XviD build 50 ~2044 kbps avg, 0.22 bit/pixel
Аудио: 48 kHz, AC3 Dolby Digital, 2/0 (L,R) ch, ~192 kbps

MediaInfo

Преступление в Коннектикуте - История Алекса Келли - Crime in Connecticut - The Story of Alex Kelly [Rip by Ledy_X].avi
Format : AVI
Format/Info : Audio Video Interleave
File size : 1.36 GiB
Duration : 1h 26mn
Overall bit rate : 2 246 Kbps
Movie name : Преступление в Коннектикуте - История Алекса Келли - Crime in Connecticut - The Story of Alex Kelly [Rip by Ledy_X]
Director : Rip by Ledy_X
Writing application : VirtualDubMod 1.5.10.3 | www.virtualdub-fr.org || (build 2550/release)
Copyright : Edich2
Comment : RuTracker.org
Video
ID : 0
Format : MPEG-4 Visual
Format profile : Advanced Simple@L5
Format settings, BVOP : 1
Format settings, QPel : No
Format settings, GMC : No warppoints
Format settings, Matrix : Default (MPEG)
Codec ID : XVID
Codec ID/Hint : XviD
Duration : 1h 26mn
Bit rate : 2 044 Kbps
Width : 720 pixels
Height : 512 pixels
Display aspect ratio : 1.406
Frame rate : 25.000 fps
Color space : YUV
Chroma subsampling : 4:2:0
Bit depth : 8 bits
Scan type : Progressive
Compression mode : Lossy
Bits/(Pixel*Frame) : 0.222
Stream size : 1.24 GiB (91%)
Writing library : XviD 1.2.1 (UTC 2008-12-04)
Audio
ID : 1
Format : AC-3
Format/Info : Audio Coding 3
Mode extension : CM (complete main)
Format settings, Endianness : Big
Codec ID : 2000
Duration : 1h 26mn
Bit rate mode : Constant
Bit rate : 192 Kbps
Channel(s) : 2 channels
Channel positions : Front: L R
Sampling rate : 48.0 KHz
Bit depth : 16 bits
Compression mode : Lossy
Stream size : 119 MiB (9%)
Alignment : Split accross interleaves
Interleave, duration : 40 ms (1.00 video frame)
Interleave, preload duration : 500 ms

Скриншоты


To download the content you need:
1. Download and install torrent client [for Windows] or for mobile system
2. Click on [Download]
Attention.
If the test YOU are NOT a ROBOT - does not work, then You are using an outdated browser.
Install the current browser and click on [Download]

Do not work with Yandex browser. Uploading files to them is erroneous.
Security: torrent client is allowed by Kaspersky.

[en.asmlocator.ru].t4664.torrent 
Torrent: Registered [ 2015-12-01 13:55 ] · 95331B4967AD6E3E5F41179BBEC0667F42399B71

Download .torrent

Download

14 KB

Status: checked
Completed: 0 times
Size: 1.36 GB
terms.php
[Profile] [PM]
Display posts:    
Reply to topic

Current time is: 05-Jun 16:24

All times are UTC ± 0



You cannot post new topics in this forum
You cannot reply to topics in this forum
You cannot edit your posts in this forum
You cannot delete your posts in this forum
You cannot vote in polls in this forum
You cannot attach files in this forum
You can download files in this forum
Верим фактам, а не вранью Путина! Факт, что Правительство ведёт Россию к истреблению.
Так как численность населения падает, даже не смотря на приток эмигрантов!
Русская нация вымирает и вырождается, смешиваясь с эмигрантами!
Факт, что военных и граждан предприятий заставляют голосовать за партию Единая Россия и Путина
ПОД СТРАХОМ УВОЛЬНЕНИЯ!
Нам не нужно Правительство, блокирующее личную жизнь, интернет, нарушающее сохранность данных.
Все эти действия финансируются за счёт народа!