Цена невинности / The Price of Kissing / The Magic of Love (Винсе ДиПерсио / Vince DiPersio) [1997, США, драма, мелодрама, VHSRip] DVO (Пирамида)

Reply to topic
DL-List and Torrent activity
Size:  1.36 GB   |    Registered:  4 years 4 months   |    Completed:  0 times

Seeder not seen: Never

 
   
 
 
Author Message

star21 ®

Gender: Female

Longevity: 4 years 4 months

Posts: 551945

Location: Екатеринбург

Post 01-Dec-2015 14:00

[Quote]

Цена невинности / The Price of Kissing / The Magic of Love
Страна: США
Жанр: драма, мелодрама
Год выпуска: 1997
Продолжительность: 01:29:09
Перевод: Профессиональный (двухголосый закадровый) Пирамида
Cубтитры: нет
Режиссер: Винсе ДиПерсио / Vince DiPersio
В ролях: Поли Перретт, Леон Робинсон, Николь Эггерт, Джон Сида, Лоретта Дивайн, Лу Ролс, Уильям Р. Мозес, Уилл Стюарт, Кэйт Карлин, Джон Доу
Описание: Есть сила — огромная и неуловимая, мимолетная и вечная, дарующая жизнь и наслаждение, отнимающая разум, приносящая то счастье, то горе, коварная и жестокая, придающая смысл жизни и не признающая никаких законов. Сила, хранящая великую тайну звука, вкуса, запаха и прикосновения. Имя ее — любовь…
Доп. информация: За оцифровку фильма из собственной коллекции спасибо team_6strun
Релиз-первоисточник
Сэмпл: https://yadi.sk/i/mKpdvXsbeatd2
Качество видео: VHSRip
Формат видео: AVI
Видео: 688x512 (1.34:1), 25 fps, XviD build 64 ~1998 kbps avg, 0.23 bit/pixel
Аудио: 48 kHz, AC3 Dolby Digital, 2/0 (L,R) ch, ~192 kbps

MediaInfo

Цена невинности - Price.of.kissing.1997.vhsrip-3k.avi
Format : AVI
Format/Info : Audio Video Interleave
File size : 1.36 GiB
Duration : 1h 29mn
Overall bit rate : 2 190 Kbps
Movie name : Цена невинности - Price.of.kissing.1997.vhsrip-3k
Director : Rip by team_6strun
Writing application : VirtualDubMod 1.5.10.2 (build 2540/release)
Copyright : Edich2
Comment : RuTracker.org
Video
ID : 0
Format : MPEG-4 Visual
Format profile : Advanced Simple@L5
Format settings, BVOP : 2
Format settings, QPel : No
Format settings, GMC : No warppoints
Format settings, Matrix : Default (MPEG)
Codec ID : XVID
Codec ID/Hint : XviD
Duration : 1h 29mn
Bit rate : 1 999 Kbps
Width : 688 pixels
Height : 512 pixels
Display aspect ratio : 4:3
Frame rate : 25.000 fps
Color space : YUV
Chroma subsampling : 4:2:0
Bit depth : 8 bits
Scan type : Progressive
Compression mode : Lossy
Bits/(Pixel*Frame) : 0.227
Stream size : 1.24 GiB (91%)
Writing library : XviD 64
Audio
ID : 1
Format : AC-3
Format/Info : Audio Coding 3
Mode extension : CM (complete main)
Format settings, Endianness : Big
Codec ID : 2000
Duration : 1h 24mn
Bit rate mode : Constant
Bit rate : 192 Kbps
Channel(s) : 2 channels
Channel positions : Front: L R
Sampling rate : 48.0 KHz
Bit depth : 16 bits
Compression mode : Lossy
Stream size : 116 MiB (8%)
Alignment : Split accross interleaves
Interleave, duration : 42 ms (1.06 video frame)
Interleave, preload duration : 500 ms

Скриншоты


To download the content you need:
1. Download and install torrent client [for Windows] or for mobile system
2. Click on [Download]
Attention.
If the test YOU are NOT a ROBOT - does not work, then You are using an outdated browser.
Install the current browser and click on [Download]

Do not work with Yandex browser. Uploading files to them is erroneous.
Security: torrent client is allowed by Kaspersky.

[en.asmlocator.ru].t4662.torrent 
Torrent: Registered [ 2015-12-01 13:55 ] · 73FDD5E26CED221401B833D47B7AABB7C32B0BF7

Download .torrent

Download

14 KB

Status: checked
Completed: 0 times
Size: 1.36 GB
terms.php
[Profile] [PM]
Display posts:    
Reply to topic

Current time is: 03-Apr 09:38

All times are UTC ± 0



You cannot post new topics in this forum
You cannot reply to topics in this forum
You cannot edit your posts in this forum
You cannot delete your posts in this forum
You cannot vote in polls in this forum
You cannot attach files in this forum
You can download files in this forum
Верим фактам, а не вранью Путина! Факт, что Правительство ведёт Россию к истреблению.
Так как численность населения падает, даже не смотря на приток эмигрантов!
Русская нация вымирает и вырождается, смешиваясь с эмигрантами!
Факт, что военных и граждан предприятий заставляют голосовать за партию Единая Россия и Путина
ПОД СТРАХОМ УВОЛЬНЕНИЯ!
Нам не нужно Правительство, блокирующее личную жизнь, интернет, нарушающее сохранность данных.
Все эти действия финансируются за счёт народа!