Клуб для вдов / Кладбищенский клуб / Клуб мертвецов / The Cemetery Club (Билл Дьюк / Bill Duke) [1993, США, Комедия, WEB-DLRip] AVO (Юрий Живов)

Reply to topic
DL-List and Torrent activity
Size:  1.46 GB   |    Registered:  4 years 4 months   |    Completed:  0 times

Seeder not seen: Never

 
   
 
 
Author Message

star21 ®

Gender: Female

Longevity: 4 years 4 months

Posts: 551945

Location: Екатеринбург

Post 01-Dec-2015 14:00

[Quote]

Клуб для вдов / Кладбищенский клуб / Клуб мертвецов / The Cemetery Club
Страна: США
Жанр: Комедия
Год выпуска: 1993
Продолжительность: 01:46:43
Перевод: Авторский (одноголосый закадровый) Юрий Живов
(перевел как Кладбищенский клуб)
Cубтитры: нет
Режиссер: Билл Дьюк / Bill Duke
В ролях: Уоллес Шон /Wallace Shawn/, Эллен Берстин /Ellen Burstyn/, Берни Кэйси /Bernie Casey/, Дайэн Лэдд /Diane Ladd/, Кристина Риччи /Christina Ricci/, Лэйни Казан /Lainie Kazan/, Олимпия Дукакис /Olympia Dukakis/, Дэнни Айелло /Danny Aiello/
Описание: Аннотация от alenavova
Три подружки - Эстер Московиц, Дорис Силвермэн, Люсиль Рубин - женщины "бальзаковского возраста" (правда, во времена Бальзака их называли бы дамами преклонного возраста). Похоронив мужей, они считали себя "членами кладбищенского клуба", потому что постоянно наведывались проведать могилы супругов. Дорис "из принципиальных соображений" давно поставила крест на своей личной жизни, Люсиль кокетничала с мужчинами напропалую, а Эстер не делала ни того, ни другого, но втайне надеялась, что не все еще позади. И однажды на кладбище подружки познакомились с бывшим полицейским, а ныне таксистом Беном Кацем, который похоронил жену и теперь не мог оторвать глаз от Эстер... Мелодраматическая комедия с блестящим трио актрис, каждая из которых принадлежит к "Оскаровскому" созвездию, и не менее великолепным Дэнни Айелло. Светлая грусть, украшающая эту картину, не делает ее ни на йоту менее смешной.
Доп. информация: Дорожка с Ю. Живовым синхронизирована, ремастерирована и наложена ale_x2008 при помощи Sony Vegas и VirtualDubMod.
За оцифрованную с VHS дорожку благодарим - alenavova

Релиз
Сэмпл: https://yadi.sk/i/N92FMQEDjtBsq
Качество видео: WEB-DLRip
Формат видео: AVI
Видео: 720x384 (1.88:1), 23.976 fps, XviD build 50 ~1762 kbps avg, 0.27 bit/pixel
Аудио: 48 kHz, AC3 Dolby Digital, 2/0 (L,R) ch, ~192 kbps

MediaInfo

Клуб для вдов The Cemetery Club [by ale_x2008].avi
Format : AVI
Format/Info : Audio Video Interleave
File size : 1.46 GiB
Duration : 1h 46mn
Overall bit rate : 1 964 Kbps
Movie name : Клуб для вдов The Cemetery Club [by ale_x2008]
Director : by ale_x2008
Writing application : VirtualDubMod 1.5.10.3 (build 2550/release)
Copyright : Edich2
Comment : RuTracker.org
Video
ID : 0
Format : MPEG-4 Visual
Format profile : Advanced Simple@L5
Format settings, BVOP : 1
Format settings, QPel : No
Format settings, GMC : No warppoints
Format settings, Matrix : Default (MPEG)
Codec ID : XVID
Codec ID/Hint : XviD
Duration : 1h 46mn
Bit rate : 1 763 Kbps
Width : 720 pixels
Height : 384 pixels
Display aspect ratio : 1.85:1
Frame rate : 23.976 fps
Color space : YUV
Chroma subsampling : 4:2:0
Bit depth : 8 bits
Scan type : Progressive
Compression mode : Lossy
Bits/(Pixel*Frame) : 0.266
Stream size : 1.31 GiB (90%)
Writing library : XviD 1.2.1 (UTC 2008-12-04)
Audio
ID : 1
Format : AC-3
Format/Info : Audio Coding 3
Mode extension : CM (complete main)
Format settings, Endianness : Big
Codec ID : 2000
Duration : 1h 46mn
Bit rate mode : Constant
Bit rate : 192 Kbps
Channel(s) : 2 channels
Channel positions : Front: L R
Sampling rate : 48.0 KHz
Bit depth : 16 bits
Compression mode : Lossy
Stream size : 147 MiB (10%)
Alignment : Split accross interleaves
Interleave, duration : 42 ms (1.00 video frame)
Interleave, preload duration : 500 ms

Скриншоты


To download the content you need:
1. Download and install torrent client [for Windows] or for mobile system
2. Click on [Download]
Attention.
If the test YOU are NOT a ROBOT - does not work, then You are using an outdated browser.
Install the current browser and click on [Download]

Do not work with Yandex browser. Uploading files to them is erroneous.
Security: torrent client is allowed by Kaspersky.

[en.asmlocator.ru].t4661.torrent 
Torrent: Registered [ 2015-12-01 13:55 ] · 908685C0F0F17AB89E38021B540C081BA5FBCBC3

Download .torrent

Download

15 KB

Status: checked
Completed: 0 times
Size: 1.46 GB
terms.php
[Profile] [PM]
Display posts:    
Reply to topic

Current time is: 03-Apr 03:37

All times are UTC ± 0



You cannot post new topics in this forum
You cannot reply to topics in this forum
You cannot edit your posts in this forum
You cannot delete your posts in this forum
You cannot vote in polls in this forum
You cannot attach files in this forum
You can download files in this forum
Верим фактам, а не вранью Путина! Факт, что Правительство ведёт Россию к истреблению.
Так как численность населения падает, даже не смотря на приток эмигрантов!
Русская нация вымирает и вырождается, смешиваясь с эмигрантами!
Факт, что военных и граждан предприятий заставляют голосовать за партию Единая Россия и Путина
ПОД СТРАХОМ УВОЛЬНЕНИЯ!
Нам не нужно Правительство, блокирующее личную жизнь, интернет, нарушающее сохранность данных.
Все эти действия финансируются за счёт народа!