Гаргантюа / Gargantua (Брэдфорд Мэй / Bradford May) [1998, США, Ужасы, Фантастика, Боевик, VHSRip] DVO (RenTV) + Original Eng

Reply to topic
DL-List and Torrent activity
Size:  1.49 GB   |    Registered:  4 years 4 months   |    Completed:  2 times

Seeder not seen: 20 seconds

 
   
 
 
Author Message

star21 ®

Gender: Female

Longevity: 4 years 5 months

Posts: 551945

Location: Екатеринбург

Post 01-Dec-2015 14:00

[Quote]

Гаргантюа / Gargantua
Страна: США
Жанр: Ужасы, Фантастика, Боевик
Год выпуска: 1998
Продолжительность: 01:32:36
Перевод: Профессиональный (двухголосый закадровый) РЕН TV
(Украинский перевод (DVO) до 0:07:55 и вставка украинского примерно на 1:16:34-1:16:58 )
Cубтитры: нет
Оригинальная аудиодорожка: английский
Режиссер: Брэдфорд Мэй / Bradford May
В ролях: Адам Болдуин, Джули Кармен, Эмиль Хирш, Бобби Хоси, Даг Пенти, Питер Адамс, Александр Питерсонс, Монро Реймерс, Даррен Шелби, Тони Бриггс, Павен Патер, Мэй Монтеро, Фиона Эдвардс, Эйслинн Кроу, Дон Бейти, Питер Кент, Шэйн Симмонс, Джек Дейси, Рене Перрин, Эндрю Бут, Кассандра Хайд, Кэролайн Хайд, Стив Харман, Малкольм Корк, Ричард Хайд, Скотт МакЛин, Брэд МакМюррей, Клэйтон Уотсон
Описание: Биолог Джек Эллвей, специализирующийся на изучении морской фауны, вместе со своим сыном Брэндоном приезжает на одинокий полинезийский остров, чтобы изучить эффекты недавних землетрясений в этой местности.
Вместе с доктором Элисон Харт они начинают исследования затопленной океаном территории и вскоре делают такое открытие, о котором не могли даже помышлять.
Доп. информация: Дорога с VHS, запись с ТВ и синхрон дорожки Ansent.
Релиз
Сэмпл: https://yadi.sk/i/xhZC6ZCmjuuVs
Качество видео: VHSRip
Формат видео: AVI
Видео: 704x528 (1.33:1), 23.976 fps, XviD build 50 ~1912 kbps avg, 0.21 bit/pixel
Аудио: 48 kHz, AC3 Dolby Digital, 2/0 (L,R) ch, ~192 kbps
Аудио 2: 48 kHz, AC3 Dolby Digital, 2/0 (L,R) ch, ~192 kbps Eng

MediaInfo

Гаргантюа - Gargantua [by Edich2].avi
Format : AVI
Format/Info : Audio Video Interleave
File size : 1.49 GiB
Duration : 1h 32mn
Overall bit rate : 2 311 Kbps
Movie name : Гаргантюа - Gargantua [by Edich2]
Director : by Edich2
Writing application : VirtualDubMod 1.5.10.2 (build 2540/release)
Comment : RuTracker.org
Video
ID : 0
Format : MPEG-4 Visual
Format profile : Advanced Simple@L5
Format settings, BVOP : 1
Format settings, QPel : No
Format settings, GMC : No warppoints
Format settings, Matrix : Default (MPEG)
Codec ID : XVID
Codec ID/Hint : XviD
Duration : 1h 32mn
Bit rate : 1 913 Kbps
Width : 704 pixels
Height : 528 pixels
Display aspect ratio : 4:3
Frame rate : 23.976 fps
Color space : YUV
Chroma subsampling : 4:2:0
Bit depth : 8 bits
Scan type : Progressive
Compression mode : Lossy
Bits/(Pixel*Frame) : 0.215
Stream size : 1.24 GiB (83%)
Writing library : XviD 1.2.1 (UTC 2008-12-04)
Audio #1
ID : 1
Format : AC-3
Format/Info : Audio Coding 3
Mode extension : CM (complete main)
Format settings, Endianness : Big
Codec ID : 2000
Duration : 1h 32mn
Bit rate mode : Constant
Bit rate : 192 Kbps
Channel(s) : 2 channels
Channel positions : Front: L R
Sampling rate : 48.0 KHz
Bit depth : 16 bits
Compression mode : Lossy
Stream size : 127 MiB (8%)
Alignment : Split accross interleaves
Interleave, duration : 42 ms (1.00 video frame)
Interleave, preload duration : 500 ms
Audio #2
ID : 2
Format : AC-3
Format/Info : Audio Coding 3
Mode extension : CM (complete main)
Format settings, Endianness : Big
Codec ID : 2000
Duration : 1h 32mn
Bit rate mode : Constant
Bit rate : 192 Kbps
Channel(s) : 2 channels
Channel positions : Front: L R
Sampling rate : 48.0 KHz
Bit depth : 16 bits
Compression mode : Lossy
Stream size : 127 MiB (8%)
Alignment : Split accross interleaves
Interleave, duration : 42 ms (1.00 video frame)
Interleave, preload duration : 500 ms

Скриншоты



To download the content you need:
1. Download and install torrent client [for Windows] or for mobile system
2. Click on [Download]
Attention.
If the test YOU are NOT a ROBOT - does not work, then You are using an outdated browser.
Install the current browser and click on [Download]

Do not work with Yandex browser. Uploading files to them is erroneous.
Security: torrent client is allowed by Kaspersky.

[en.asmlocator.ru].t4658.torrent 
Torrent: Registered [ 2015-12-01 13:55 ] · 1E82A623BEFCC58899AA8D9768C1EC494E7CBF14

Download .torrent

Download

15 KB

Status: checked
Completed: 2 times
Size: 1.49 GB
terms.php
[Profile] [PM]
Display posts:    
Reply to topic

Current time is: 08-Apr 02:35

All times are UTC ± 0



You cannot post new topics in this forum
You cannot reply to topics in this forum
You cannot edit your posts in this forum
You cannot delete your posts in this forum
You cannot vote in polls in this forum
You cannot attach files in this forum
You can download files in this forum
Верим фактам, а не вранью Путина! Факт, что Правительство ведёт Россию к истреблению.
Так как численность населения падает, даже не смотря на приток эмигрантов!
Русская нация вымирает и вырождается, смешиваясь с эмигрантами!
Факт, что военных и граждан предприятий заставляют голосовать за партию Единая Россия и Путина
ПОД СТРАХОМ УВОЛЬНЕНИЯ!
Нам не нужно Правительство, блокирующее личную жизнь, интернет, нарушающее сохранность данных.
Все эти действия финансируются за счёт народа!