Проклятье голодающего класса / Curse of the Starving Class (Майкл МакКлэри / Michael McClary) [1994, США, комедия, DVDRip] AVO (Алексеев) + Original Eng

Reply to topic
DL-List and Torrent activity
Size:  860 MB   |    Registered:  4 years 3 months   |    Completed:  0 times

Seeder not seen: 2 years 1 month

 
   
 
 
Author Message

star21 ®

Gender: Female

Longevity: 4 years 4 months

Posts: 551945

Location: Екатеринбург

Post 01-Dec-2015 14:00

[Quote]

Проклятье голодающего класса / Curse of the Starving Class
Страна: США
Жанр: комедия
Год выпуска: 1994
Продолжительность: 01:37:51
Перевод: Авторский (одноголосый закадровый) Антона Алексеева
Cубтитры: нет
Оригинальная аудиодорожка: английский
Режиссер: Майкл МакКлэри / Michael McClary
В ролях: Джеймс Вудс /James Woods/, Кэти Бэйтс /Kathy Bates/, Рэнди Куэйд /Randy Quaid/, Хенри Томас /Henry Thomas/, Кристин Фиорелла /Kristin Fiorella/, Луис Госсетт-младший /Louis Gossett, Jr./
Рецензия Михаила Иванова: Джеймс Вудс в необычной для него роли мошенника-пройдохи, мужлана и пьяницы, задолжавшего деньги серьезным ребятам. Семья живет в условиях средней совдеповской "чернухи" американской глубинки. Постоянные ссоры, крики и ругань. Безысходность и жажда вырваться висят в воздухе, как топор. Импульсивная и честолюбивая дочь Эмма обвиняет брата, мать, весь мир. Но куда деваться? Проклятье голодающего класса давит, как камень. А Вудс тем временем пытается провернуть дельце с недвижимостью и продать семейную ферму. Мать делает то же самое, надеясь уехать в Париж. Все хотят сбежать из этой дыры и постоянно выясняют отношения. Все кроме сына, который хочет жить и работать на своей земле. Прекрасные актеры, крепкий сюжет по пьесе Сэма Шепарда, чудесная музыка. В фильме есть над чем посмеяться, но это смех с горьким привкусом. Куэйд в роли владельца агенства недвижимости, преуспевающего, самодовольного и, как всегда обаятельного мерзавца, хочет купить ферму за гроши.
Качество видео: DVDRip >> Сэмпл
Формат видео: AVI
Видео: 512x384 (1.33:1), 25 fps, XviD 1.2 beta 1 (build 43) ~833 kbps avg, 0.17 bit/pixel - рип из сети
Аудио 1: 48 kHz, AC3 Dolby Digital, 2/0 (L,R) ch, ~224 kbps - перевод Алексеева оцифрован и синхронизирован мной с коллекционной кассеты
Аудио 2: 48 kHz, MPEG Layer 3, 2 ch, ~151.91 kbps avg - english

MediaInfo

Формат : AVI
Формат/Информация : Audio Video Interleave
Размер файла : 860 Мбайт
Продолжительность : 1 ч. 37 м.
Режим общего битрейта : Переменный
Общий поток : 1229 Кбит/сек
Название фильма : Curse of the Starving Class (1994)
Программа кодирования : VirtualDubMod 1.5.10.3 | www.virtualdub-fr.org || (build 2550/release)
Библиотека кодирования : VirtualDubMod build 2550/release
Правообладатель : sasikainen
Видео
Идентификатор : 0
Формат : MPEG-4 Visual
Профиль формата : Advanced Simple@L5
Параметр BVOP формата : 2
Параметр QPel формата : Нет
Параметр GMC формата : Без точки перехода
Параметр матрицы формата : Default (H.263)
Идентификатор кодека : XVID
Идентификатор кодека/Подсказка : XviD
Продолжительность : 1 ч. 37 м.
Битрейт : 835 Кбит/сек
Ширина : 512 пикселей
Высота : 384 пикселя
Соотношение сторон : 4:3
Частота кадров : 25,000 кадров/сек
Цветовое пространство : YUV
Субдискретизация насыщенности : 4:2:0
Битовая глубина : 8 бит
Тип развёртки : Прогрессивная
Метод сжатия : С потерями
Бит/(Пиксели*Кадры) : 0.170
Размер потока : 585 Мбайт (68%)
Библиотека кодирования : XviD 1.2.0SMP (UTC 2006-01-08)
Аудио #1
Идентификатор : 1
Формат : AC-3
Формат/Информация : Audio Coding 3
Расширение режима : CM (complete main)
Параметр Endianness формата : Big
Идентификатор кодека : 2000
Продолжительность : 1 ч. 37 м.
Вид битрейта : Постоянный
Битрейт : 224 Кбит/сек
Каналы : 2 канала
Расположение каналов : Front: L R
Частота : 48,0 КГц
Битовая глубина : 16 бит
Метод сжатия : С потерями
Размер потока : 157 Мбайт (18%)
Выравнивание : Разделение по промежуткам
Продолжительность промежутка : 40 мс. (1,00 видеокадр)
Время предзагрузки промежутка : 500 мс.
Заголовок : russian
Аудио #2
Идентификатор : 2
Формат : MPEG Audio
Версия формата : Version 1
Профиль формата : Layer 3
Режим : Joint stereo
Расширение режима : MS Stereo
Идентификатор кодека : 55
Идентификатор кодека/Подсказка : MP3
Продолжительность : 1 ч. 37 м.
Вид битрейта : Переменный
Битрейт : 152 Кбит/сек
Каналы : 2 канала
Частота : 48,0 КГц
Метод сжатия : С потерями
Размер потока : 106 Мбайт (12%)
Выравнивание : Соединение по промежуткам
Продолжительность промежутка : 24 мс. (0,60 видеокадр)
Время предзагрузки промежутка : 121 мс.
Заголовок : english
Библиотека кодирования : LAME3.93
Настройки программы : -m j -V 0 -q 0 -lowpass 19.5 --vbr-new

Скриншоты

To download the content you need:
1. Download and install torrent client [for Windows] or for mobile system
2. Click on [Download]
Attention.
If the test YOU are NOT a ROBOT - does not work, then You are using an outdated browser.
Install the current browser and click on [Download]

Do not work with Yandex browser. Uploading files to them is erroneous.
Security: torrent client is allowed by Kaspersky.

[en.asmlocator.ru].t4654.torrent 
Torrent: Registered [ 2015-12-01 13:55 ] · 02446085590BFAF6163C7A0DA7EE29C7B317F313

Download .torrent

Download

17 KB

Status: checked
Completed: 0 times
Size: 860 MB
terms.php
[Profile] [PM]
Display posts:    
Reply to topic

Current time is: 29-Mar 00:14

All times are UTC ± 0



You cannot post new topics in this forum
You cannot reply to topics in this forum
You cannot edit your posts in this forum
You cannot delete your posts in this forum
You cannot vote in polls in this forum
You cannot attach files in this forum
You can download files in this forum
Верим фактам, а не вранью Путина! Факт, что Правительство ведёт Россию к истреблению.
Так как численность населения падает, даже не смотря на приток эмигрантов!
Русская нация вымирает и вырождается, смешиваясь с эмигрантами!
Факт, что военных и граждан предприятий заставляют голосовать за партию Единая Россия и Путина
ПОД СТРАХОМ УВОЛЬНЕНИЯ!
Нам не нужно Правительство, блокирующее личную жизнь, интернет, нарушающее сохранность данных.
Все эти действия финансируются за счёт народа!