История о нас / The Story of Us (Роб Райнер / Rob Reiner) [1999, США, комедия, мелодрама, драма, VHSRip] [FullScreen] Dub (Мосфильм)

Reply to topic
DL-List and Torrent activity
Size:  1.37 GB   |    Registered:  4 years 3 months   |    Completed:  1 time

Seeder not seen: 5 months 9 days

 
   
 
 
Author Message

star21 ®

Gender: Female

Longevity: 4 years 4 months

Posts: 551945

Location: Екатеринбург

Post 01-Dec-2015 14:00

[Quote]

История о нас / The Story of Us
[FullScreen]
Страна: США
Жанр: комедия, мелодрама, драма
Год выпуска: 1999
Продолжительность: 01:31:43
Перевод: Профессиональный (дублированный) Мосфильм
Cубтитры: нет
Режиссер: Роб Райнер / Rob Reiner
В ролях: Брюс Уиллис, Мишель Пфайффер, Коллин Реннисон, Джэйк Сендвиг, Кейси Боерсма, Тим Мэтисон, Роб Райнер, Джули Хэгерти, Рита Уилсон, Дилан Боерсма
Описание: 1. Если вы разочаровались в браке, Брюс Уиллис и Мишель Пфайффер помогут Вам с юмором решить семейные проблемы.
Есть пограничная территория между расставанием и разводом… Бен (Брюс Уиллис) и Кэти (Мишель Пфайффер), преуспевающая супружеская пара, через 15 лет после свадьбы находятся на грани развода. Они пытаются спасти свой брак, но накопившееся за годы раздражение друг от друга все время выплескивается наружу.
Может быть выход в том, чтобы любить, друг друга такими, какие они есть?
Искрометный юмор и блестящая игра двух голливудских звезд.
2. Рассказ начинает сценарист Бен (Брюс Уиллис). Он говорит, как в детстве мечтал о том, что вот супружеская пара доживает до 60 лет, а потом он умирает, а она уходит вслед за ним через несколько дней. Теперь он сидит за семейным столом с женой Кэти (Пфайффер), дочкой и сыном, но юбилей свадьбы они уже справляют отдельно. Ретроспекцией даются бесконечные ссоры, превращающиеся в единственный способ общения, а когда детей отправляют в летний лагерь, начинается раздельная жизнь. "Брак и быт - убийцы романтики", - приходят к выводу дамы, а их мужики за другим столиком говорят о сексе через интернет и о том, что фантазии не измена. И вот Бен и Кэти живут раздельно, лежат без сна в разных постелях. Они звонят друг другу по любому поводу, и ясно, что после 15 лет брака они все еще любят друг друга. Научит ли их разлука тому, что необходимо всегда находить компромисс, уметь любить человека таким, какой он есть, а не требовать, чтобы он вдруг изменился, повинуясь "волшебному карандашу", сказка о котором так нравилась Кэйти, когда она была маленькой. Этот фильм - история о нас. Посмотрите его в исполнении двух замечательных актеров кино. Будет очень жаль, если они все-таки расстанутся и доживут отдельно до шестидесяти лет. (Иванов М.)
Доп. информация: Оцифровка лицензионной VHS (личный архив) и получение VHSRip alenavova
Эксклюзив для rutracker.org. При размещении данного релиза на других сайтах ссылка на автора alenavova обязательна.

Релиз
Сэмпл: https://yadi.sk/i/sm2U0kSBjwLrD
Качество видео: VHSRip
Формат видео: AVI
Видео: 704x528 (1.33:1), 25 fps, XviD build 50 ~1932 kbps avg, 0.21 bit/pixel
Аудио: 48 kHz, AC3 Dolby Digital, 2/0 (L,R) ch, ~192 kbps

MediaInfo

История о нас - The Story of Us (by alenavova).avi
Format : AVI
Format/Info : Audio Video Interleave
File size : 1.37 GiB
Duration : 1h 31mn
Overall bit rate : 2 134 Kbps
Movie name : История о нас - The Story of Us (by alenavova)
Director : by alenavova
Writing application : VirtualDubMod 1.5.10.3 | www.virtualdub-fr.org || (build 2550/release)
Copyright : Edich2
Comment : RuTracker.org
Video
ID : 0
Format : MPEG-4 Visual
Format profile : Advanced Simple@L5
Format settings, BVOP : 1
Format settings, QPel : No
Format settings, GMC : No warppoints
Format settings, Matrix : Default (MPEG)
Codec ID : XVID
Codec ID/Hint : XviD
Duration : 1h 31mn
Bit rate : 1 933 Kbps
Width : 704 pixels
Height : 528 pixels
Display aspect ratio : 4:3
Frame rate : 25.000 fps
Color space : YUV
Chroma subsampling : 4:2:0
Bit depth : 8 bits
Scan type : Progressive
Compression mode : Lossy
Bits/(Pixel*Frame) : 0.208
Stream size : 1.24 GiB (91%)
Writing library : XviD 1.2.1 (UTC 2008-12-04)
Audio
ID : 1
Format : AC-3
Format/Info : Audio Coding 3
Mode extension : CM (complete main)
Format settings, Endianness : Big
Codec ID : 2000
Duration : 1h 31mn
Bit rate mode : Constant
Bit rate : 192 Kbps
Channel(s) : 2 channels
Channel positions : Front: L R
Sampling rate : 48.0 KHz
Bit depth : 16 bits
Compression mode : Lossy
Stream size : 126 MiB (9%)
Alignment : Split accross interleaves
Interleave, duration : 40 ms (1.00 video frame)
Interleave, preload duration : 500 ms

Скриншоты


To download the content you need:
1. Download and install torrent client [for Windows] or for mobile system
2. Click on [Download]
Attention.
If the test YOU are NOT a ROBOT - does not work, then You are using an outdated browser.
Install the current browser and click on [Download]

Do not work with Yandex browser. Uploading files to them is erroneous.
Security: torrent client is allowed by Kaspersky.

[en.asmlocator.ru].t4653.torrent 
Torrent: Registered [ 2015-12-01 13:55 ] · 1CDD7702EAE42D35739A73848813637C7F5C9745

Download .torrent

Download

14 KB

Status: checked
Completed: 1 times
Size: 1.37 GB
terms.php
[Profile] [PM]
Display posts:    
Reply to topic

Current time is: 29-Mar 18:54

All times are UTC ± 0



You cannot post new topics in this forum
You cannot reply to topics in this forum
You cannot edit your posts in this forum
You cannot delete your posts in this forum
You cannot vote in polls in this forum
You cannot attach files in this forum
You can download files in this forum
Верим фактам, а не вранью Путина! Факт, что Правительство ведёт Россию к истреблению.
Так как численность населения падает, даже не смотря на приток эмигрантов!
Русская нация вымирает и вырождается, смешиваясь с эмигрантами!
Факт, что военных и граждан предприятий заставляют голосовать за партию Единая Россия и Путина
ПОД СТРАХОМ УВОЛЬНЕНИЯ!
Нам не нужно Правительство, блокирующее личную жизнь, интернет, нарушающее сохранность данных.
Все эти действия финансируются за счёт народа!