Ноттинг Хилл / Notting Hill (Роджер Мичелл / Roger Michell) [1999, Великобритания, США, комедия, мелодрама, VHSRip] [FullScreen] Dub (Мосфильм)

Reply to topic
DL-List and Torrent activity
Size:  1.46 GB   |    Registered:  4 years 3 months   |    Completed:  0 times

Seeder not seen: Never

 
   
 
 
Author Message

star21 ®

Gender: Female

Longevity: 4 years 4 months

Posts: 551945

Location: Екатеринбург

Post 01-Dec-2015 14:00

[Quote]

Ноттинг Хилл / Notting Hill
[FullScreen]
Страна: Великобритания, США
Жанр: комедия, мелодрама
Год выпуска: 1999
Продолжительность: 01:58:49
Перевод: Профессиональный (дублированный) Мосфильм / Союз
Cубтитры: нет
Режиссер: Роджер Мичелл / Roger Michell
В ролях: Джулия Робертс, Хью Грант, Ричард МакКейб, Рис Иванс, Джеймс Дрейфус, Дилан Моран, Роджер Фрост, Генри Гудман, Джулиан Райнд-Татт, Лорелей Кинг
Описание: Уильям Тэкер, простой, добрый, обаятельный и симпатичный англичанин, владелец магазинчика путеводителей (Грант), знакомится с покупательницей (Робертс), дает ей пару доброжелательных советов. Оказывается, что она знаменитая американская киноактриса Анна Скотт, получающая за фильм по 15 млн. долларов. Тэкер однажды случайно обливает ее кофе и приглашает к себе вывести пятно. Они начинают встречаться. Он приглашает ее на день рождения своей сестры, и Анна получает огромное удовольствие от общения с людьми, не имеющими отношения к безумию шоу-бизнеса. Долго длиться идиллия не могла, наступает разрыв, так как объявляется постоянный мужчина Анны (Болдуин). Через какое-то время она, будучи в депрессивном состоянии из-за публикации ранних снимков, где она позировала обнаженной, снова появляется в доме Уильяма. Спаркс, глуповатый и жутко смешной сосед по квартире, вызывает журналистов. Скандал снова прерывает взаимоотношения влюбленных...
Милая романтическая комедия о любви из числа тех, что приятно согревают сердце. Фильм отличается мягким юмором, хорошим вкусом и по-настоящему ярко, трогательно и комично выписанными персонажами второго плана. Съемки производились в Лондоне. (Иванов М.)
Доп. информация: Оцифровка лицензионной VHS (личный архив) и получение VHSRip alenavova
Эксклюзив для rutracker.org. При размещении данного релиза на других сайтах ссылка на автора alenavova обязательна.

Релиз
Сэмпл: https://yadi.sk/i/-UgMWNmdjySsK
Качество видео: VHSRip
Формат видео: AVI
Видео: 704x528 (1.33:1), 25 fps, XviD build 50 ~1563 kbps avg, 0.17 bit/pixel
Аудио: 48 kHz, AC3 Dolby Digital, 2/0 (L,R) ch, ~192 kbps

MediaInfo

Ноттинг Хилл - Notting Hill (by alenavova).avi
Format : AVI
Format/Info : Audio Video Interleave
File size : 1.46 GiB
Duration : 1h 58mn
Overall bit rate : 1 765 Kbps
Movie name : Ноттинг Хилл - Notting Hill (by alenavova)
Director : by alenavova
Writing application : VirtualDubMod 1.5.10.3 | www.virtualdub-fr.org || (build 2550/release)
Copyright : Edich2
Comment : RuTracker.org
Video
ID : 0
Format : MPEG-4 Visual
Format profile : Advanced Simple@L5
Format settings, BVOP : 1
Format settings, QPel : No
Format settings, GMC : No warppoints
Format settings, Matrix : Default (MPEG)
Codec ID : XVID
Codec ID/Hint : XviD
Duration : 1h 58mn
Bit rate : 1 563 Kbps
Width : 704 pixels
Height : 528 pixels
Display aspect ratio : 4:3
Frame rate : 25.000 fps
Color space : YUV
Chroma subsampling : 4:2:0
Bit depth : 8 bits
Scan type : Progressive
Compression mode : Lossy
Bits/(Pixel*Frame) : 0.168
Stream size : 1.30 GiB (89%)
Writing library : XviD 1.2.1 (UTC 2008-12-04)
Audio
ID : 1
Format : AC-3
Format/Info : Audio Coding 3
Mode extension : CM (complete main)
Format settings, Endianness : Big
Codec ID : 2000
Duration : 1h 58mn
Bit rate mode : Constant
Bit rate : 192 Kbps
Channel(s) : 2 channels
Channel positions : Front: L R
Sampling rate : 48.0 KHz
Bit depth : 16 bits
Compression mode : Lossy
Stream size : 163 MiB (11%)
Alignment : Split accross interleaves
Interleave, duration : 40 ms (1.00 video frame)
Interleave, preload duration : 500 ms

Скриншоты


To download the content you need:
1. Download and install torrent client [for Windows] or for mobile system
2. Click on [Download]
Attention.
If the test YOU are NOT a ROBOT - does not work, then You are using an outdated browser.
Install the current browser and click on [Download]

Do not work with Yandex browser. Uploading files to them is erroneous.
Security: torrent client is allowed by Kaspersky.

[en.asmlocator.ru].t4647.torrent 
Torrent: Registered [ 2015-12-01 13:55 ] · F3C01061D6848DA0E1D0B5E06093BED88493C4DF

Download .torrent

Download

15 KB

Status: checked
Completed: 0 times
Size: 1.46 GB
terms.php
[Profile] [PM]
Display posts:    
Reply to topic

Current time is: 28-Mar 22:57

All times are UTC ± 0



You cannot post new topics in this forum
You cannot reply to topics in this forum
You cannot edit your posts in this forum
You cannot delete your posts in this forum
You cannot vote in polls in this forum
You cannot attach files in this forum
You can download files in this forum
Верим фактам, а не вранью Путина! Факт, что Правительство ведёт Россию к истреблению.
Так как численность населения падает, даже не смотря на приток эмигрантов!
Русская нация вымирает и вырождается, смешиваясь с эмигрантами!
Факт, что военных и граждан предприятий заставляют голосовать за партию Единая Россия и Путина
ПОД СТРАХОМ УВОЛЬНЕНИЯ!
Нам не нужно Правительство, блокирующее личную жизнь, интернет, нарушающее сохранность данных.
Все эти действия финансируются за счёт народа!