Остин Пауэрс: Шпион, который меня соблазнил / Austin Powers: The Spy Who Shagged Me (Джей Роуч / Jay Roach) [1999, США, комедия, VHSRip] [FullScreen] AVO (Павел Санаев)

Reply to topic
DL-List and Torrent activity
Size:  1.37 GB   |    Registered:  4 years 4 months   |    Completed:  0 times

Seeder not seen: Never

 
   
 
 
Author Message

star21 ®

Gender: Female

Longevity: 4 years 4 months

Posts: 551945

Location: Екатеринбург

Post 01-Dec-2015 14:00

[Quote]

Остин Пауэрс: Шпион, который меня соблазнил / Austin Powers: The Spy Who Shagged Me
[FullScreen]
Страна: США
Жанр: комедия
Год выпуска: 1999
Продолжительность: 01:31:06
Перевод: Авторский (одноголосый закадровый) Павел Санаев
Cубтитры: нет
Режиссер: Джей Роуч / Jay Roach
В ролях: Майк Майерс, Хезер Грэм, Майкл Йорк, Роберт Вагнер, Роб Лоу, Сет Грин, Минди Стерлинг, Верн Тройер, Элизабет Херли, Гиа Каридес, Оливер Мьюрхед, Джордж Чеунг, Дженнифер Кулидж, Элвис Костелло, Уилл Феррелл, Вуди Хэррелсон, Чарлз Нэпьер, Тим Роббинс, Ребекка Ромэйн-Стэймос, Джерри Спрингер, Фред Уиллард
Описание: Вариант 1. Мечтающий о мировом господстве Доктор Зло отправляется назад в свингующие 60-е и похищает "моджо" плейбоя и суперагента Остина Пауэрса (Майк Майерс - "Остин Пауэрс 1, 3", "Мир Уэйна 1, 2") - талисман, гарантирующий ему успех у женщин. Остин бросается в погоню за своим врагом, чтобы вместе с сооблазнительной помощницей Фелицией Трахвэлл (Хезер Грэм - "Клевый парень", "Ночи в тиле буги") спасти мир, вернуть свою гиперсексуальность и успеть домой как раз к чаю...
Вариант 2. Эксцентрическая комедия, продолжение первой, снятой в 1997 году, пародирующая все фильмы Бонда. Супер спецагент теперь борется с мистером Зло, прыгая туда-сюда во времени. Этим расскаж о сюжете ограничиваю, но фильм по-настоящему смешной. Взрослые и дети будут ржать, как лошади. Обнаженка не слишком откровенная, да и не это главное, так что пусть смотрят хоть пятилетние. Вербальный юмор они не поймут, а действия, чистой клоунады, ярких красок так много, что возрастных ограничений я бы не вводил. Мы смотрели на даче с тремя детьми от восьми лет до 15, и все были довольны. (Иванов М.)
Доп. информация: Оцифровка лицензионной VHS (личный архив) и получение VHSRip alenavova
Эксклюзив для rutracker.org. При размещении данного релиза на других сайтах ссылка на автора alenavova обязательна.

Релиз
Сэмпл: https://yadi.sk/i/U4tg7JlOjyZ4m
Качество видео: VHSRip
Формат видео: AVI
Видео: 704x528 (1.33:1), 25 fps, XviD build 50 ~1946 kbps avg, 0.21 bit/pixel
Аудио: 48 kHz, AC3 Dolby Digital, 2/0 (L,R) ch, ~192 kbps

MediaInfo

Остин Пауэрс. Шпион, который меня соблазнил The spy who shagged me (by alenavova).avi
Format : AVI
Format/Info : Audio Video Interleave
File size : 1.37 GiB
Duration : 1h 31mn
Overall bit rate : 2 148 Kbps
Movie name : Остин Пауэрс. Шпион, который меня соблазнил The spy who shagged me (by alenavova)
Director : by alenavova
Writing application : VirtualDubMod 1.5.10.3 | www.virtualdub-fr.org || (build 2550/release)
Copyright : Edich2
Comment : RuTracker.org
Video
ID : 0
Format : MPEG-4 Visual
Format profile : Advanced Simple@L5
Format settings, BVOP : 1
Format settings, QPel : No
Format settings, GMC : No warppoints
Format settings, Matrix : Default (MPEG)
Codec ID : XVID
Codec ID/Hint : XviD
Duration : 1h 31mn
Bit rate : 1 946 Kbps
Width : 704 pixels
Height : 528 pixels
Display aspect ratio : 4:3
Frame rate : 25.000 fps
Color space : YUV
Chroma subsampling : 4:2:0
Bit depth : 8 bits
Scan type : Progressive
Compression mode : Lossy
Bits/(Pixel*Frame) : 0.209
Stream size : 1.24 GiB (91%)
Writing library : XviD 1.2.1 (UTC 2008-12-04)
Audio
ID : 1
Format : AC-3
Format/Info : Audio Coding 3
Mode extension : CM (complete main)
Format settings, Endianness : Big
Codec ID : 2000
Duration : 1h 31mn
Bit rate mode : Constant
Bit rate : 192 Kbps
Channel(s) : 2 channels
Channel positions : Front: L R
Sampling rate : 48.0 KHz
Bit depth : 16 bits
Compression mode : Lossy
Stream size : 125 MiB (9%)
Alignment : Split accross interleaves
Interleave, duration : 40 ms (1.00 video frame)
Interleave, preload duration : 500 ms

Скриншоты



To download the content you need:
1. Download and install torrent client [for Windows] or for mobile system
2. Click on [Download]
Attention.
If the test YOU are NOT a ROBOT - does not work, then You are using an outdated browser.
Install the current browser and click on [Download]

Do not work with Yandex browser. Uploading files to them is erroneous.
Security: torrent client is allowed by Kaspersky.

[en.asmlocator.ru].t4646.torrent 
Torrent: Registered [ 2015-12-01 13:55 ] · E42510FF7551380DF2D6AD2FF25D699EA740FC33

Download .torrent

Download

14 KB

Status: checked
Completed: 0 times
Size: 1.37 GB
terms.php
[Profile] [PM]
Display posts:    
Reply to topic

Current time is: 03-Apr 03:43

All times are UTC ± 0



You cannot post new topics in this forum
You cannot reply to topics in this forum
You cannot edit your posts in this forum
You cannot delete your posts in this forum
You cannot vote in polls in this forum
You cannot attach files in this forum
You can download files in this forum
Верим фактам, а не вранью Путина! Факт, что Правительство ведёт Россию к истреблению.
Так как численность населения падает, даже не смотря на приток эмигрантов!
Русская нация вымирает и вырождается, смешиваясь с эмигрантами!
Факт, что военных и граждан предприятий заставляют голосовать за партию Единая Россия и Путина
ПОД СТРАХОМ УВОЛЬНЕНИЯ!
Нам не нужно Правительство, блокирующее личную жизнь, интернет, нарушающее сохранность данных.
Все эти действия финансируются за счёт народа!