Потерянный рай / Племя тьмы / Paradise Lost (Херб Фрид / Herb Freed) [1999, США, Ужасы, мистика, драма, DVDRip] MVO

Reply to topic
DL-List and Torrent activity
Size:  1.45 GB   |    Registered:  4 years 4 months   |    Completed:  0 times

Seeder not seen: Never

 
   
 
 
Author Message

star21 ®

Gender: Female

Longevity: 4 years 4 months

Posts: 551945

Location: Екатеринбург

Post 01-Dec-2015 14:00

[Quote]

Потерянный рай / Племя тьмы / Paradise Lost
Страна: США
Жанр: Ужасы, мистика, драма
Год выпуска: 1999
Продолжительность: 1:41:31
Перевод: Профессиональный (многоголосый закадровый)
Cубтитры: нет
Режиссер: Херб Фрид / Herb Freed
В ролях: Уильям Форсайт, Марина Сиртис, Мигель Анхело Мехиас, Найджел Хаверс, Мигель Анхел Суарес, Мигель Анхел Альварез
Описание: Могущественная корпорация "Старк Индастриз" разрабатывает план по освоению непроходимых джунглей. В центре тропического леса на месте маленькой, заброшенной деревушки будет воздвигнут город будущего - Византия. Вся мощь современной цивилизации вторгается в первозданный мир, где испокон веков обитали только дикие звери и первобытные племена. Но существует легенда: джунглей, где не ступала нога человека, защищает "племя Тьмы", и оно жестоко расправится с каждым, кто войдет в его дом без приглашения. Люди не подозревают, к каким катаклизмам может привести их бездумное вмешательство, а у природы еще остались силы, чтобы отомстить человечеству за разрушенный рай.
Доп. информация: Звук синхронизирован из раздачи MacSim47
Сэмпл: https://www.sendspace.com/file/whb16k
Качество видео: DVDRip
Формат видео: AVI
Видео: XviD MPEG-4 , 704x528 (1.33:1) , 25 fps , 1 847 Kbps
Аудио: AC3 , 48 kHz , 192.00 kbps avg , 2/0 (L,R) ch

MediaInfo

Complete name Потерянный рай 1999.avi
Format : AVI
Format/Info : Audio Video Interleave
File size : 1.45 GiB
Duration : 1h 41mn
Overall bit rate : 2 049 Kbps
Writing application : VirtualDubMod 1.5.10.3 | www.virtualdub-fr.org || (build 2550/release)
Writing library : VirtualDub build 35491/release
Video
ID : 0
Format : MPEG-4 Visual
Format profile : Advanced Simple@L5
Format settings, BVOP : 1
Format settings, QPel : No
Format settings, GMC : No warppoints
Format settings, Matrix : Default (MPEG)
Codec ID : XVID
Codec ID/Hint : XviD
Duration : 1h 41mn
Bit rate : 1 847 Kbps
Width : 704 pixels
Height : 528 pixels
Display aspect ratio : 4:3
Frame rate : 25.000 fps
Color space : YUV
Chroma subsampling : 4:2:0
Bit depth : 8 bits
Scan type : Progressive
Compression mode : Lossy
Bits/(Pixel*Frame) : 0.199
Stream size : 1.31 GiB (90%)
Writing library : XviD 1.2.1 (UTC 2008-12-04)
Audio
ID : 1
Format : AC-3
Format/Info : Audio Coding 3
Mode extension : CM (complete main)
Format settings, Endianness : Big
Codec ID : 2000
Duration : 1h 41mn
Bit rate mode : Constant
Bit rate : 192 Kbps
Channel(s) : 2 channels
Channel positions : Front: L R
Sampling rate : 48.0 KHz
Compression mode : Lossy
Stream size : 139 MiB (9%)
Alignment : Aligned on interleaves
Interleave, duration : 40 ms (1.00 video frame)
Interleave, preload duratio : 512 ms

Скриншоты

To download the content you need:
1. Download and install torrent client [for Windows] or for mobile system
2. Click on [Download]
Attention.
If the test YOU are NOT a ROBOT - does not work, then You are using an outdated browser.
Install the current browser and click on [Download]

Do not work with Yandex browser. Uploading files to them is erroneous.
Security: torrent client is allowed by Kaspersky.

[en.asmlocator.ru].t4643.torrent 
Torrent: Registered [ 2015-12-01 13:55 ] · E4A259BC57CE3F1C0F0BD50D293BE80AC9FC8D35

Download .torrent

Download

15 KB

Status: checked
Completed: 0 times
Size: 1.45 GB
terms.php
[Profile] [PM]
Display posts:    
Reply to topic

Current time is: 05-Apr 05:05

All times are UTC ± 0



You cannot post new topics in this forum
You cannot reply to topics in this forum
You cannot edit your posts in this forum
You cannot delete your posts in this forum
You cannot vote in polls in this forum
You cannot attach files in this forum
You can download files in this forum
Верим фактам, а не вранью Путина! Факт, что Правительство ведёт Россию к истреблению.
Так как численность населения падает, даже не смотря на приток эмигрантов!
Русская нация вымирает и вырождается, смешиваясь с эмигрантами!
Факт, что военных и граждан предприятий заставляют голосовать за партию Единая Россия и Путина
ПОД СТРАХОМ УВОЛЬНЕНИЯ!
Нам не нужно Правительство, блокирующее личную жизнь, интернет, нарушающее сохранность данных.
Все эти действия финансируются за счёт народа!