2002 год. Скандал в Эдене / Две тысячи второй год: Скандал в Эдеме / 2002: The Rape of Eden / 2002: The Virgin Hunters / Bounty Hunter 2002 / Quest for the Kind (Сэм Остер / Sam Auster) [1994, США, фантастика, боевик, драма, комедия, VHSRip] VO

Reply to topic
DL-List and Torrent activity
Size:  1.37 GB   |    Registered:  4 years 3 months   |    Completed:  0 times

Seeder not seen: Never

 
   
 
 
Author Message

star21 ®

Gender: Female

Longevity: 4 years 4 months

Posts: 551945

Location: Екатеринбург

Post 01-Dec-2015 14:00

[Quote]

2002 год. Скандал в Эдене / Две тысячи второй год: Скандал в Эдеме / 2002: The Rape of Eden / 2002: The Virgin Hunters / Bounty Hunter 2002 / Quest for the Kind
Страна: США
Жанр: фантастика, боевик, драма, комедия
Год выпуска: 1994
Продолжительность: 01:29:21
Перевод: Одноголосый закадровый
Cубтитры: нет
Режиссер: Сэм Остер / Sam Auster
В ролях: Фил Норделл
Френсин Лапенсе
Джефф Конэвей
Вернон Уэллс
Vallie Ullman
Allan Eu
Полли Файастоун
Лэнс Букман
Майкл О’Коннор
Луиз Фицпатрик
Описание: Аннотация от alenavova
Почему-то будущее нередко представляется американским киношникам в самых мрачных тонах. То мир взорвали, то нас инопланетяне захватили... в нашем случае - катастрофой стал СПИД. Вымерли почти все американские женщины, а оставшиеся в крайне ограниченном количестве мужчины гоняются за "чистыми" дамами, чтобы продать их... в Японию! Даже профессия такая появилась: ловец. Итак, мир разделился на "чистых" и "нечистых". "Чистые" мужчины объединяются в религиозную общину под названием "Эден" и молят Бога о Евах. Ев поставляют ловцы в количестве крайне ограниченном. Но тут главный ловец (конечно, красавец-супермен) заприметил даму. С большим трудом поймал и размышляет: в Эден продать или японцам, или, может, себе оставить. Дама училась в Вест-Пойнте и умеет стрелять, драться и ножом бросаться - в общем неотразима...
Доп. информация: Внимание: "ДВОЙНОЙ MIX", т.е. сначала оригинальный текст переводится на польский, а затем: "авторский" перевод. "Фишка" 90-х годов, видеокассет, записанных на "Старой Горбуше".
Оцифровка VHS (личный архив) и получение VHSRip alenavova
Эксклюзив для rutracker.org. При размещении данного релиза на других сайтах ссылка на автора alenavova обязательна.

Релиз
Сэмпл: https://yadi.sk/i/rVYQIkR8k2WTq
Качество видео: VHSRip
Формат видео: AVI
Видео: 704x528 (1.33:1), 25 fps, XviD build 50 ~1989 kbps avg, 0.21 bit/pixel
Аудио: 48 kHz, AC3 Dolby Digital, 2/0 (L,R) ch, ~192 kbps

MediaInfo

2002 год Скандал Эдене - The Rape of Eden [by alenavova].avi
Format : AVI
Format/Info : Audio Video Interleave
File size : 1.37 GiB
Duration : 1h 29mn
Overall bit rate : 2 191 Kbps
Movie name : 2002 год Скандал Эдене - The Rape of Eden [by alenavova]
Director : by alenavova
Writing application : VirtualDubMod 1.5.10.3 | www.virtualdub-fr.org || (build 2550/release)
Copyright : Edich2
Comment : RuTracker.org
Video
ID : 0
Format : MPEG-4 Visual
Format profile : Advanced Simple@L5
Format settings, BVOP : 1
Format settings, QPel : No
Format settings, GMC : No warppoints
Format settings, Matrix : Default (MPEG)
Codec ID : XVID
Codec ID/Hint : XviD
Duration : 1h 29mn
Bit rate : 1 989 Kbps
Width : 704 pixels
Height : 528 pixels
Display aspect ratio : 4:3
Frame rate : 25.000 fps
Color space : YUV
Chroma subsampling : 4:2:0
Bit depth : 8 bits
Scan type : Progressive
Compression mode : Lossy
Bits/(Pixel*Frame) : 0.214
Stream size : 1.24 GiB (91%)
Writing library : XviD 1.2.1 (UTC 2008-12-04)
Audio
ID : 1
Format : AC-3
Format/Info : Audio Coding 3
Mode extension : CM (complete main)
Format settings, Endianness : Big
Codec ID : 2000
Duration : 1h 29mn
Bit rate mode : Constant
Bit rate : 192 Kbps
Channel(s) : 2 channels
Channel positions : Front: L R
Sampling rate : 48.0 KHz
Bit depth : 16 bits
Compression mode : Lossy
Stream size : 123 MiB (9%)
Alignment : Split accross interleaves
Interleave, duration : 40 ms (1.00 video frame)
Interleave, preload duration : 500 ms

Скриншоты


To download the content you need:
1. Download and install torrent client [for Windows] or for mobile system
2. Click on [Download]
Attention.
If the test YOU are NOT a ROBOT - does not work, then You are using an outdated browser.
Install the current browser and click on [Download]

Do not work with Yandex browser. Uploading files to them is erroneous.
Security: torrent client is allowed by Kaspersky.

[en.asmlocator.ru].t4639.torrent 
Torrent: Registered [ 2015-12-01 13:55 ] · 338436E20899B65D2DD1CAED933C8174951D5840

Download .torrent

Download

14 KB

Status: checked
Completed: 0 times
Size: 1.37 GB
terms.php
[Profile] [PM]
Display posts:    
Reply to topic

Current time is: 29-Mar 18:28

All times are UTC ± 0



You cannot post new topics in this forum
You cannot reply to topics in this forum
You cannot edit your posts in this forum
You cannot delete your posts in this forum
You cannot vote in polls in this forum
You cannot attach files in this forum
You can download files in this forum
Верим фактам, а не вранью Путина! Факт, что Правительство ведёт Россию к истреблению.
Так как численность населения падает, даже не смотря на приток эмигрантов!
Русская нация вымирает и вырождается, смешиваясь с эмигрантами!
Факт, что военных и граждан предприятий заставляют голосовать за партию Единая Россия и Путина
ПОД СТРАХОМ УВОЛЬНЕНИЯ!
Нам не нужно Правительство, блокирующее личную жизнь, интернет, нарушающее сохранность данных.
Все эти действия финансируются за счёт народа!