Калифорнийский Казанова / California Casanova (Нэт Кристиан / Nat Christian) [1991, США, Комедия, SATRip] AVO (Юрий Живов)

Reply to topic
DL-List and Torrent activity
Size:  1.34 GB   |    Registered:  4 years 4 months   |    Completed:  0 times

Seeder not seen: 2 years 8 months

 
   
 
 
Author Message

star21 ®

Gender: Female

Longevity: 4 years 4 months

Posts: 551945

Location: Екатеринбург

Post 01-Dec-2015 14:00

[Quote]

Калифорнийский Казанова / California Casanova
Страна: США
Жанр: Комедия
Год выпуска: 1991
Продолжительность: 01:30:27
Перевод: Авторский (одноголосый закадровый) Юрий Живов
Cубтитры: нет
Режиссер: Нэт Кристиан / Nat Christian
В ролях: Джерри Орбак, Одри Лэндерс, Тайрон Пауэр мл., Брайан Джинесс, Мишель Джонстон, Тед Дэвис, Кен Керчевал, Джойс Блэр, Ана Хелена Беренджер, Натали Кристиан
Описание: Неуклюжий, бедный, безуспешный молодой человек думает, что он спасён, когда стареющий, всегда безукоризненно одетый, европейский жигало мистер Раминовский, обладающий невероятным шармом, стилем и изяществом, пробует помочь обрести «ботанику» веру в себя и превратиться в современного Казанову, но не всё так просто…
Доп. информация: Дорожка с Ю. Живовым синхронизирована, ремастерирована и наложена ale_x2008 при помощи Adobe Audition, iZotope RX2, Sony Vegas и VirtualDubMod. Восстановлен правильный тон переводчика.
За оцифрованную с VHS дорожку благодарим - alenavova

IMDb: 6.10 (89)
Релиз
Сэмпл: https://yadi.sk/i/9JFs9Ezmk39m6
Качество видео: SATRip [n3rex]
Формат видео: AVI
Видео: XviD build 47, 688x496 (1.39:1), 25.00 fps, 1925 kbps avg, 0.23 bit/pixel
Аудио: AC3 Dolby Digital, 48000Hz, 2/0 (L,R) ch (mono), 192.00 kbps avg

MediaInfo

Калифорнийский Казанова - California Casanova (by ale_x2008) .avi
Format : AVI
Format/Info : Audio Video Interleave
File size : 1.34 GiB
Duration : 1h 30mn
Overall bit rate : 2 127 Kbps
Movie name : Калифорнийский Казанова - California Casanova (by ale_x2008)
Director : by ale_x2008)
Writing application : VirtualDubMod 1.5.10.3 (build 2550/release)
Copyright : Edich2
Comment : RuTracker.org
Video
ID : 0
Format : MPEG-4 Visual
Format profile : Advanced Simple@L5
Format settings, BVOP : 1
Format settings, QPel : No
Format settings, GMC : No warppoints
Format settings, Matrix : Default (MPEG)
Codec ID : XVID
Codec ID/Hint : XviD
Duration : 1h 30mn
Bit rate : 1 925 Kbps
Width : 688 pixels
Height : 496 pixels
Display aspect ratio : 1.387
Frame rate : 25.000 fps
Color space : YUV
Chroma subsampling : 4:2:0
Bit depth : 8 bits
Scan type : Progressive
Compression mode : Lossy
Bits/(Pixel*Frame) : 0.226
Stream size : 1.22 GiB (91%)
Writing library : XviD 1.2.0.dev47 (UTC 2006-11-01)
Audio
ID : 1
Format : AC-3
Format/Info : Audio Coding 3
Mode extension : CM (complete main)
Format settings, Endianness : Big
Codec ID : 2000
Duration : 1h 30mn
Bit rate mode : Constant
Bit rate : 192 Kbps
Channel(s) : 2 channels
Channel positions : Front: L R
Sampling rate : 48.0 KHz
Bit depth : 16 bits
Compression mode : Lossy
Stream size : 124 MiB (9%)
Alignment : Split accross interleaves
Interleave, duration : 40 ms (1.00 video frame)
Interleave, preload duration : 500 ms

To download the content you need:
1. Download and install torrent client [for Windows] or for mobile system
2. Click on [Download]
Attention.
If the test YOU are NOT a ROBOT - does not work, then You are using an outdated browser.
Install the current browser and click on [Download]

Do not work with Yandex browser. Uploading files to them is erroneous.
Security: torrent client is allowed by Kaspersky.

[en.asmlocator.ru].t4636.torrent 
Torrent: Registered [ 2015-12-01 13:55 ] · D4DE9771DFF7A87AACB8D7EFA05C40764F4A323E

Download .torrent

Download

14 KB

Status: checked
Completed: 0 times
Size: 1.34 GB
terms.php
[Profile] [PM]
Display posts:    
Reply to topic

Current time is: 04-Apr 14:34

All times are UTC ± 0



You cannot post new topics in this forum
You cannot reply to topics in this forum
You cannot edit your posts in this forum
You cannot delete your posts in this forum
You cannot vote in polls in this forum
You cannot attach files in this forum
You can download files in this forum
Верим фактам, а не вранью Путина! Факт, что Правительство ведёт Россию к истреблению.
Так как численность населения падает, даже не смотря на приток эмигрантов!
Русская нация вымирает и вырождается, смешиваясь с эмигрантами!
Факт, что военных и граждан предприятий заставляют голосовать за партию Единая Россия и Путина
ПОД СТРАХОМ УВОЛЬНЕНИЯ!
Нам не нужно Правительство, блокирующее личную жизнь, интернет, нарушающее сохранность данных.
Все эти действия финансируются за счёт народа!