Просто вопрос любви / Juste une question d\'amoure / Just a question of love (Кристиан Фор / Christian Faure) [2000, Франция, мелодрама, DVDRip] VO

Reply to topic
DL-List and Torrent activity
Size:  1.45 GB   |    Registered:  4 years 4 months   |    Completed:  8 times

Seeder not seen: 3 months 18 days

 
   
 
 
Author Message

star21 ®

Gender: Female

Longevity: 4 years 4 months

Posts: 551945

Location: Екатеринбург

Post 01-Dec-2015 14:00

[Quote]

Просто вопрос любви / Juste une question d'amoure / Just a question of love
Страна: Франция
Жанр: мелодрама
Год выпуска: 2000
Продолжительность: 01:28:20
Перевод: Одноголосый закадровый
Cубтитры: нет

Режиссер: Кристиан Фор / Christian Faure
В ролях: Сирилл Тувенин, Стефан Гуэрин-Тилли, Ева Дарлан, Каролина Веи, Дэниэль Дени, Идвиг Стефан, Лоуренс Сезар, Жан-Пьерр Валер, Рафаэл Лубанс, Жан-Баптист Лефевр
Описание: Фильм рассказывает историю об отношениях двух молодых людей — Лорана и Седрика. Лорану 23 года, он гей и скрывает это от своих гомофобных родителей. Лоран студент сельхозакадемии и у него есть подруга по комнате, которая тайно в него влюблена и которая соглашается подыграть Лорану, выдавая себя за его девушку. Однажды Лоран знакомится с Седриком и влюбляется в него. В противоположность Лорану, Седрик не скрывает, что он гей и его раздражает поведение Лорана.
Качество видео:
Формат видео: AVI
Видео: 688x400 (1.72:1), 25 fps, XviD build 73 ~2155 kbps avg, 0.31 bit/pixel
Аудио: 48 kHz, AC3 Dolby Digital, 2/0 (L,R) ch, ~192 kbps

MediaInfo

Общее
Полное имя : H:\Juste.une.question.d'amour.2000.dvdrip_[1.46]_[teko].avi
Формат : AVI
Формат/Информация : Audio Video Interleave
Размер файла : 1,45 Гбайт
Продолжительность : 1 ч. 28 м.
Общий поток : 2358 Кбит/сек
Программа кодирования : VirtualDubMod 1.5.10.3 | www.virtualdub-fr.org || (build 2550/release)
Библиотека кодирования : VirtualDubMod build 2550/release
Видео
Идентификатор : 0
Формат : MPEG-4 Visual
Профиль формата : Advanced Simple@L5
Параметр BVOP формата : 1
Параметр QPel формата : Нет
Параметр GMC формата : Без точки перехода
Параметр матрицы формата : Выборочная
Идентификатор кодека : XVID
Идентификатор кодека/Подсказка : XviD
Продолжительность : 1 ч. 28 м.
Битрейт : 2156 Кбит/сек
Ширина : 688 пикселей
Высота : 400 пикселей
Соотношение сторон : 1,720
Частота кадров : 25,000 кадров/сек
Цветовое пространство : YUV
Субдискретизация насыщенности : 4:2:0
Битовая глубина : 8 бит
Тип развёртки : Прогрессивная
Метод сжатия : С потерями
Бит/(Пиксели*Кадры) : 0.313
Размер потока : 1,33 Гбайт (91%)
Библиотека кодирования : XviD 73
Аудио
Идентификатор : 1
Формат : AC-3
Формат/Информация : Audio Coding 3
Расширение режима : CM (complete main)
Параметр Endianness формата : Big
Идентификатор кодека : 2000
Продолжительность : 1 ч. 28 м.
Вид битрейта : Постоянный
Битрейт : 192 Кбит/сек
Каналы : 2 канала
Расположение каналов : Front: L R
Частота : 48,0 КГц
Битовая глубина : 16 бит
Метод сжатия : С потерями
Размер потока : 121 Мбайт (8%)
Выравнивание : Разделение по промежуткам
Продолжительность промежутка : 40 мс. (1,00 видеокадр)
Время предзагрузки промежутка : 500 мс.

Скриншоты

Релиз группы:
-
-

To download the content you need:
1. Download and install torrent client [for Windows] or for mobile system
2. Click on [Download]
Attention.
If the test YOU are NOT a ROBOT - does not work, then You are using an outdated browser.
Install the current browser and click on [Download]

Do not work with Yandex browser. Uploading files to them is erroneous.
Security: torrent client is allowed by Kaspersky.

[en.asmlocator.ru].t4635.torrent 
Torrent: Registered [ 2015-12-01 13:55 ] · C1D86C0869E8CDF9E46472760682C75FEB6565E0

Download .torrent

Download

15 KB

Status: checked
Completed: 8 times
Size: 1.45 GB
terms.php
[Profile] [PM]
Display posts:    
Reply to topic

Current time is: 05-Apr 04:02

All times are UTC ± 0



You cannot post new topics in this forum
You cannot reply to topics in this forum
You cannot edit your posts in this forum
You cannot delete your posts in this forum
You cannot vote in polls in this forum
You cannot attach files in this forum
You can download files in this forum
Верим фактам, а не вранью Путина! Факт, что Правительство ведёт Россию к истреблению.
Так как численность населения падает, даже не смотря на приток эмигрантов!
Русская нация вымирает и вырождается, смешиваясь с эмигрантами!
Факт, что военных и граждан предприятий заставляют голосовать за партию Единая Россия и Путина
ПОД СТРАХОМ УВОЛЬНЕНИЯ!
Нам не нужно Правительство, блокирующее личную жизнь, интернет, нарушающее сохранность данных.
Все эти действия финансируются за счёт народа!